<?xml version="1.0" standalone="no"?>
<!DOCTYPE svg PUBLIC "-//W3C//DTD SVG 1.1//EN" "http://www.w3.org/Graphics/SVG/1.1/DTD/svg11.dtd" >
<svg xmlns="http://www.w3.org/2000/svg">
<metadata>Generated by IcoMoon</metadata>
<defs>
<font id="icomoon" horiz-adv-x="1024">
<font-face units-per-em="1024" ascent="960" descent="-64" />
<missing-glyph horiz-adv-x="1024" />
<glyph unicode="&#x20;" horiz-adv-x="512" d="" />
<glyph unicode="&#xe900;" glyph-name="phone" d="M234.742 960c39.573 0.406 76.936-15.591 105.375-51.375l5.625-7.438 19-25.938c21.009-28.28 46.348-62.906 61.5-97.812 10.505-24.218 17.595-51.421 15-80-2.665-29.288-15.286-57.21-39.375-82.563-21.351-22.474-26.267-54.457-13.812-94.938 12.562-40.794 41.812-85.278 79.875-123.062 38.095-37.804 82.328-66.236 122.25-77.809 39.411-11.424 69.667-5.549 90.627 16.497 22.445 23.611 48.141 36.543 75.558 40.313 26.669 3.661 52.544-1.669 75.693-10.063 23.13-8.392 45.389-20.493 65.248-32.312 21.811-12.984 36.813-23.049 54.31-33.123 42.323-24.358 65.005-60.832 70.874-101.626 5.664-39.373-4.602-80.275-22.31-116.25-17.824-36.211-44.352-69.862-74.874-95.501-30.24-25.395-66.701-44.819-104.627-48.563-201.35-19.885-401.815 83.974-552.561 234.81-150.838 150.941-257.729 354.556-267.937 544.252-1.998 37.637 12.915 76.902 34.312 110.75 21.727 34.367 52.199 66.503 86.25 90.375 33.743 23.651 73.647 40.95 114 41.375zM235.367 896c-23.092-0.252-50.504-10.569-77.875-29.75-27.065-18.972-51.639-44.931-68.876-72.188-17.549-27.761-25.577-53.738-24.563-73.125 9.153-170.061 106.549-359.572 249.313-502.435 142.883-142.97 325.512-233.702 501.001-216.378 20.992 2.074 45.677 13.658 69.747 33.875 23.782 19.974 44.755 46.579 58.624 74.752 13.99 28.416 19.648 56.083 16.378 78.874-3.078 21.357-14.182 40.71-39.437 55.251-16.301 9.382-38.298 23.603-55.123 33.626-18.778 11.174-36.909 20.87-54.317 27.187-17.395 6.304-32.339 8.576-45.184 6.81-12.096-1.664-24.704-7.277-37.811-21.062-42.912-45.146-101.289-49.344-154.877-33.811-53.064 15.386-106.283 50.918-149.563 93.875-43.296 42.984-79.48 96.159-95.937 149.625-16.55 53.789-14.113 112.83 28.625 157.812 15.055 15.844 20.753 30.614 22 44.312 1.3 14.38-2.084 30.506-10 48.75-16.69 38.44-47.18 74.211-74.063 112.25-16.892 23.82-36.858 31.97-58.063 31.75z" />
<glyph unicode="&#xe901;" glyph-name="mail" horiz-adv-x="1260" d="M1089.615 960c45.261 0 88.686-17.994 120.69-50s50.003-75.433 50.003-120.692v-656.385c-0.008-45.253-17.999-88.694-50.003-120.69s-75.437-50.003-120.69-50.003h-918.923c-45.253 0-88.688 18.007-120.692 50.003-32.002 31.996-49.995 75.437-50 120.69v656.385c0 45.259 18 88.687 50 120.692 32.006 32.006 75.429 50 120.692 50h918.923zM652 362.769c-13.229-8.82-30.462-8.82-43.692 0l-529.539 353.077v-582.923c0.005-24.363 9.693-47.774 26.923-65 17.232-17.219 40.638-26.923 65-26.923h918.923c24.363 0 47.766 9.704 65 26.923 17.227 17.227 26.915 40.637 26.923 65v582.923l-529.539-353.077zM170.692 881.231c-24.373 0-47.766-9.689-65-26.923-12.514-12.517-21.036-28.278-24.77-45.307l549.231-366.077 549.155 366.077c-3.734 17.023-12.186 32.794-24.694 45.307-17.235 17.235-40.629 26.923-65 26.923h-918.923z" />
<glyph unicode="&#xe902;" glyph-name="human" horiz-adv-x="832" d="M565.313 320c65.059-0.006 127.494-25.869 173.497-71.872 45.997-46.003 71.872-108.39 71.878-173.44v-106.688c0-17.658-14.349-31.981-32-32-17.67 0-32 14.33-32 32v106.688c-0.006 48.077-19.136 94.189-53.126 128.186-34.003 34.003-80.164 53.12-128.249 53.126h-320c-48.081-0.006-94.187-19.13-128.188-53.126-34.002-34.003-53.119-80.102-53.125-128.186v-106.688c0-17.664-14.336-31.987-32-32-17.673 0-32 14.33-32 32v106.688c0.006 65.056 25.871 127.43 71.875 173.44 46.003 45.997 108.383 71.866 173.437 71.872h320zM405.313 960c135.478-0.011 245.363-109.835 245.375-245.313 0-135.487-109.891-245.364-245.375-245.375-135.484 0.011-245.313 109.888-245.313 245.375 0.012 135.478 109.835 245.301 245.313 245.313zM405.313 896c-100.131-0.012-181.301-81.181-181.313-181.313 0-100.141 81.174-181.364 181.313-181.375 100.138 0.010 181.375 81.234 181.375 181.375-0.011 100.132-81.243 181.302-181.375 181.313z" />
<glyph unicode="&#xe903;" glyph-name="brain" d="M601.617 956.501c27.378 5.442 55.641 4.523 82.603-2.7 26.969-7.227 51.941-20.557 72.933-38.967 20.985-18.408 37.451-41.409 48.131-67.2 5.635-13.603 9.533-27.806 11.735-42.267 21.176-8.988 40.943-21.109 58.566-36.1 26.293-22.367 47.155-50.413 61-82.033 13.844-31.625 20.333-66.006 18.934-100.499-0.922-22.647-5.287-44.94-12.766-66.202 17.166-19.081 31.113-41.035 41.066-65.065 19.166-46.275 22.531-97.587 9.568-145.968-12.967-48.374-41.537-91.112-81.268-121.6-0.669-0.512-1.359-0.993-2.034-1.498-0.007-21.176-2.918-42.295-8.8-62.734-8.595-29.884-23.238-57.692-42.998-81.702-19.763-24.006-44.261-43.721-71.936-57.9-27.672-14.172-57.972-22.552-88.999-24.566-31.031-2.010-62.191 2.352-91.467 12.834-29.269 10.482-56.102 26.883-78.8 48.131-9.738 9.12-18.575 19.111-26.532 29.734-7.956-10.615-16.766-20.617-26.501-29.734-22.702-21.251-49.521-37.649-78.8-48.131-29.273-10.479-60.404-14.848-91.432-12.834-31.027 2.017-61.327 10.39-89 24.566-27.676 14.182-52.17 33.891-71.934 57.9s-34.403 51.814-43 81.702c-5.88 20.439-8.781 41.561-8.8 62.734-0.68 0.509-1.392 0.98-2.067 1.498-39.726 30.491-68.305 73.23-81.267 121.6-12.963 48.377-9.597 99.693 9.567 145.968 9.952 24.026 23.9 45.988 41.067 65.065-7.476 21.258-11.812 43.558-12.733 66.202-1.401 34.492 5.090 68.876 18.933 100.499 13.844 31.618 34.711 59.667 61 82.033 17.612 14.983 37.371 27.113 58.533 36.1 2.203 14.462 6.133 28.664 11.767 42.267 10.684 25.793 27.177 48.792 48.167 67.2 20.989 18.405 45.936 31.74 72.9 38.967 26.969 7.225 55.252 8.147 82.634 2.7s53.152-17.106 75.298-34.1c9.37-7.188 17.944-15.299 25.702-24.1 7.755 8.802 16.333 16.912 25.699 24.1 22.149 16.995 47.951 28.653 75.332 34.1zM381.819 867.234c-13.687 2.721-27.822 2.276-41.301-1.334-13.482-3.612-25.972-10.298-36.467-19.5-10.49-9.202-18.726-20.708-24.066-33.6-5.338-12.891-7.644-26.843-6.733-40.767 0.913-13.929 5.020-27.477 12-39.567 12.566-21.762 5.093-49.597-16.667-62.167-21.763-12.557-49.568-5.094-62.133 16.667-4.031 6.982-7.539 14.221-10.6 21.633-3.903-2.674-7.68-5.554-11.3-8.633-15.773-13.42-28.293-30.263-36.6-49.234-8.305-18.973-12.174-39.604-11.333-60.299 0.26-6.383 0.992-12.718 2.133-18.968 14.908-0.737 29.14-8.779 37.167-22.665 12.566-21.763 5.126-49.599-16.634-62.167-26.022-15.029-46.368-38.24-57.867-66-11.497-27.764-13.51-58.542-5.733-87.569 7.778-29.024 24.927-54.671 48.767-72.967 23.839-18.289 53.052-28.228 83.1-28.232 25.128-0.007 45.501-20.371 45.5-45.5s-20.375-45.493-45.5-45.5c-13.052 0-26.003 1.164-38.733 3.366 5.28-16.179 13.499-31.27 24.333-44.431 11.853-14.401 26.537-26.228 43.133-34.734 16.604-8.506 34.817-13.524 53.433-14.735 18.607-1.205 37.278 1.42 54.832 7.7 17.565 6.291 33.679 16.118 47.302 28.867 13.619 12.752 24.497 28.187 31.932 45.302 7.427 17.111 11.247 35.577 11.267 54.231 0 0.201 0.031 0.403 0.034 0.601v223.266c-23.207-18.026-49.708-31.717-78.268-40.066-24.119-7.042-49.38 6.786-56.433 30.901-7.049 24.119 6.786 49.408 30.902 56.467 29.925 8.748 56.224 26.959 74.933 51.9 18.705 24.945 28.812 55.286 28.832 86.467l0.034 0.601v181.399c0 13.957-3.195 27.749-9.366 40.267-6.175 12.52-15.162 23.468-26.235 31.967-11.073 8.496-23.979 14.31-37.666 17.034zM660.685 865.901c-13.483 3.613-27.641 4.056-41.332 1.334-13.681-2.723-26.566-8.545-37.635-17.034-11.073-8.497-20.057-19.45-26.231-31.967-5.403-10.954-8.533-22.876-9.233-35.033l-0.167-5.233v-182l0.498-11.633c2.202-27.037 11.967-53.006 28.334-74.834 18.705-24.941 45.015-43.148 74.933-51.9 24.125-7.052 37.987-32.345 30.935-56.467-7.055-24.122-32.345-37.953-56.467-30.901-28.553 8.349-55.030 22.043-78.234 40.066v-223.867l0.198-6.997c0.853-16.261 4.605-32.266 11.1-47.234 7.431-17.111 18.285-32.55 31.901-45.302 13.619-12.749 29.737-22.576 47.302-28.867 17.562-6.287 36.25-8.905 54.866-7.7 18.613 1.212 36.796 6.233 53.398 14.735 16.606 8.506 31.311 20.33 43.168 34.734 10.831 13.158 19.050 28.252 24.334 44.431-12.725-2.198-25.685-3.366-38.735-3.366-25.126 0.007-45.5 20.374-45.5 45.5 0 25.129 20.374 45.489 45.5 45.5 30.048 0 59.262 9.943 83.101 28.232 23.839 18.295 40.987 43.943 48.766 72.967 7.776 29.024 5.762 59.808-5.734 87.569-11.5 27.761-31.843 50.971-57.866 66-21.753 12.568-29.225 40.404-16.667 62.167 8.018 13.879 22.265 21.914 37.168 22.665 1.14 6.253 1.908 12.582 2.167 18.968 0.84 20.695-3.028 41.325-11.336 60.299-8.305 18.972-20.825 35.813-36.598 49.234-3.628 3.086-7.421 5.954-11.336 8.633-3.055-7.405-6.506-14.659-10.534-21.633-12.564-21.765-40.4-29.233-62.164-16.667s-29.228 40.403-16.667 62.167c6.977 12.088 11.087 25.639 11.998 39.567 0.911 13.922-1.362 27.877-6.7 40.767-5.342 12.897-13.602 24.396-24.098 33.6-10.493 9.201-22.955 15.886-36.434 19.5z" />
<glyph unicode="&#xe904;" glyph-name="drop" horiz-adv-x="805" d="M390.034 960c23.241 0 43.26-16.393 47.824-39.179 22.034-110.187 88.748-217.286 177.679-288.429 106.273-85.017 164.571-190.665 164.571-306.249-0.007-103.446-41.106-202.639-114.253-275.785-73.15-73.154-172.368-114.253-275.822-114.253-103.443 0.007-202.638 41.106-275.784 114.253s-114.246 172.339-114.25 275.785c0 115.584 58.298 221.232 164.571 306.249 88.927 71.143 155.641 178.242 177.679 288.429l1.036 4.179c6.036 20.578 24.967 34.992 46.749 35zM390.034 762.5c-39.28-79.836-96.428-151.736-164.57-206.249-88.749-71.003-127.964-150.667-127.964-230.107 0.004-77.583 30.819-151.998 85.678-206.859 54.859-54.857 129.276-85.672 206.856-85.68 77.59 0 152.031 30.819 206.896 85.68 54.857 54.861 85.672 129.276 85.676 206.859 0 79.444-39.241 159.1-128 230.107-68.14 54.514-125.29 126.411-164.571 206.249z" />
<glyph unicode="&#xe905;" glyph-name="leaf" d="M882.893 959.718c16.483-1.784 30.936-11.817 38.356-26.643 50.319-100.633 102.678-214.847 102.678-411.892-0.011-295.918-255.711-536.214-536.214-536.287l0.037-0.037-0.106 0.037-0.073-0.037c-97.785-0.252-192.123 36.22-264.285 102.217-22.847 20.893-42.933 44.292-60 69.57-43.164-44.178-65.748-103.804-65.75-171.82-0.007-26.917-21.835-48.742-48.75-48.75-26.923 0-48.778 21.826-48.786 48.75 0.002 106.613 42.166 199.387 118 262.535-10.44 30.164-17.282 61.707-20.071 94-8.413 97.474 20.124 194.571 79.929 271.999 59.606 77.159 145.959 129.189 242.001 145.857l49.821 9.786c110.329 22.062 179.939 39.345 231.998 61.821 56.108 24.226 92.789 54.975 138.002 111.036 10.416 12.914 26.715 19.637 43.213 17.857zM864.965 824.396c-35.858-34.904-74.339-61.401-124.61-83.107-70.927-30.624-164.063-51.195-302.032-77.821-0.344-0.066-0.695-0.12-1.039-0.178-72.332-12.359-137.388-51.464-182.249-109.536-44.854-58.072-66.238-130.893-59.929-203.999 1.472-17.035 4.477-33.792 8.821-50.107 20.761 8.934 42.928 16.329 66.429 21.928l16.643 3.643c52.996 10.514 108.374 32.801 156.714 58.748 48.713 26.152 87.011 54.224 106.928 74.145 19.043 19.032 49.927 19.035 68.966 0 19.010-19.039 19.013-49.894 0-68.93-28.833-28.833-75.886-62.208-129.785-91.143-54.279-29.136-118.879-55.607-183.859-68.498-22.247-4.411-42.83-10.697-61.678-18.644 12.753-18.842 27.778-36.268 44.821-51.858 54.148-49.521 124.944-76.899 198.321-76.676h0.143c228.465 0 438.81 198.466 438.824 438.821-0.004 136.047-27.227 225.764-61.429 303.213z" />
<glyph unicode="&#xe906;" glyph-name="Checkmark" d="M416 192l-288 288.002 45.248 45.248 242.752-242.722 434.752 434.722 45.248-45.248-480-480.002z" />
<glyph unicode="&#xe907;" glyph-name="lighting" horiz-adv-x="922" d="M510.962 958.863c15.223 2.814 30.952 0.366 44.602-6.933 13.65-7.303 24.422-19.041 30.532-33.267 6.103-14.223 7.206-30.11 3.099-45.033-0.16-0.582-0.348-1.158-0.532-1.733l-87.368-273.966c-0.225-0.707-0.474-1.406-0.734-2.099h318.703c17.169 0.027 34.021-4.806 48.565-13.933 14.578-9.158 26.269-22.272 33.7-37.803s10.288-32.867 8.267-49.964c-2.024-17.101-8.851-33.294-19.702-46.667-0.843-1.041-1.734-2.041-2.666-3l-450.567-464.166c-9.95-10.646-23.026-17.876-37.4-20.535-15.223-2.816-30.949-0.369-44.599 6.932s-24.424 19.012-30.534 33.236c-6.107 14.22-7.201 30.106-3.1 45.032l0.533 1.765 87.366 273.968 0.734 2.099h-318.7c-17.168-0.027-33.99 4.806-48.534 13.933-14.586 9.158-26.299 22.269-33.733 37.803-7.428 15.531-10.286 32.867-8.267 49.964 2.023 17.097 8.854 33.263 19.7 46.633l2.667 3.034 450.532 464.167c9.957 10.661 23.047 17.872 37.434 20.533zM91.263 413.798h318.432c14.674 0.024 29.15-3.495 42.168-10.267 13.056-6.796 24.289-16.657 32.7-28.733 8.407-12.080 13.759-26.033 15.599-40.636 1.748-13.868 0.232-27.938-4.332-41.131l-57.668-180.736 381.034 392.533h-318.467c-14.671-0.024-29.146 3.499-42.165 10.267-13.053 6.793-24.259 16.66-32.669 28.733-8.41 12.080-13.79 26.030-15.633 40.636-1.744 13.868-0.232 27.938 4.335 41.132l57.634 180.767-380.968-392.565z" />
<glyph unicode="&#xe908;" glyph-name="lock-empty" horiz-adv-x="956" d="M460.8 960c73.918-0.009 144.865-29.398 197.134-81.667 52.251-52.269 81.661-123.157 81.667-197.067v-130.867h39.799c78.527-0.012 142.186-63.67 142.199-142.2v-318.6c0-78.541-63.665-142.186-142.199-142.199h-637.2c-78.537 0.014-142.2 63.659-142.2 142.199v318.6c0.012 78.53 63.67 142.188 142.2 142.2h39.866v130.867c0.006 73.923 29.395 144.795 81.667 197.067 52.27 52.261 123.152 81.661 197.067 81.667zM142.2 448c-21.976-0.012-39.788-17.824-39.8-39.8v-318.6c0-21.989 17.817-39.786 39.8-39.799h637.2c21.982 0.014 39.799 17.811 39.799 39.799v318.6c-0.014 21.976-17.824 39.788-39.799 39.8h-637.2zM460.8 857.6c-46.757-0.006-91.6-18.609-124.667-51.667-33.068-33.068-51.661-77.902-51.667-124.667v-130.867h352.733v130.867c-0.005 46.752-18.616 91.602-51.666 124.667-33.066 33.066-77.973 51.658-124.733 51.667z" />
<glyph unicode="&#xe909;" glyph-name="lock-filled" horiz-adv-x="825" d="M407.567 960c140.453-0.001 254.728-114.264 254.731-254.716v-50.955h50.94c27.021 0 52.936-10.729 72.045-29.835 19.106-19.108 29.849-45.025 29.85-72.045v-509.463c-0.002-27.021-10.744-52.938-29.85-72.045-19.109-19.106-45.024-29.835-72.045-29.835h-611.343c-27.022 0-52.937 10.729-72.045 29.835-19.107 19.108-29.85 45.024-29.851 72.045v509.463c0.002 27.020 10.744 52.938 29.851 72.045 19.108 19.104 45.024 29.835 72.045 29.835h50.94v50.955c0.003 140.453 114.277 254.716 254.731 254.716zM407.567 450.552c-27.023 0-52.936-10.743-72.045-29.85-19.108-19.109-29.85-45.022-29.85-72.045 0.002-37.647 20.644-70.15 50.955-87.777v-115.999h101.88v115.999c30.312 17.679 50.954 50.181 50.955 87.777 0 27.021-10.744 52.936-29.85 72.045-19.109 19.108-45.022 29.85-72.045 29.85zM407.567 858.119c-84.261 0-152.833-68.576-152.836-152.836v-50.955h305.672v50.955c-0.003 84.26-68.574 152.835-152.836 152.836z" />
<glyph unicode="&#xe90a;" glyph-name="pulse" d="M364.066 960c10.769-0.003 21.313-3.055 30.368-8.767l3.765-2.6 3.567-2.9c6.878-6.085 12.192-13.753 15.466-22.333l1.468-4.333 0.099-0.433 218.3-776.769 74.069 263.434c8.055 28.713 25.313 54.009 49.097 72.001 23.767 17.971 52.774 27.679 82.569 27.634h112.831c25.126-0.010 45.5-20.374 45.503-45.5 0-25.129-20.378-45.493-45.503-45.5h-112.93c-9.94 0.020-19.64-3.239-27.569-9.236-7.926-5.997-13.681-14.428-16.367-23.999l-107.066-380.901c-3.444-11.803-10.633-22.183-20.466-29.566-9.841-7.38-21.835-11.36-34.133-11.366-12.302 0-24.289 3.987-34.133 11.366-9.841 7.383-17.019 17.76-20.466 29.566l-0.133 0.433-218.334 776.801-74.033-263.467c-8.023-28.6-25.159-53.818-48.8-71.799-23.649-17.985-52.557-27.747-82.266-27.832h-113.434c-25.133 0-45.533 20.364-45.533 45.5 0.002 25.129 20.402 45.5 45.533 45.5h113.167c9.899 0.031 19.553 3.308 27.433 9.298 7.875 5.997 13.595 14.404 16.267 23.934l107.067 380.9c3.448 11.809 10.658 22.186 20.5 29.567l3.767 2.6c9.051 5.707 19.571 8.764 30.333 8.767z" />
<glyph unicode="&#xe90b;" glyph-name="shield" horiz-adv-x="819" d="M409.566 960c23.514-0.003 46.257-8.393 64.133-23.667 0.13-0.11 0.273-0.221 0.399-0.333 74.609-65.225 177.684-112.531 254.003-112.533 24.136-0.001 47.299-9.599 64.365-26.667 17.056-17.064 26.662-40.206 26.665-64.333v-318.566c0-125.781-44.575-222.481-116.231-296.001-70.42-72.243-164.997-120.143-262.902-154.266l-0.365-0.133c-19.476-6.601-40.598-6.339-59.935 0.597-98.167 33.901-192.896 81.633-263.399 153.836-71.742 73.475-116.298 170.185-116.3 295.967v318.566c0.004 24.132 9.603 47.269 26.667 64.333 17.066 17.064 40.2 26.665 64.333 26.667 76.285 0.002 179.836 47.72 254.033 112.533l0.365 0.333c17.882 15.277 40.649 23.667 64.167 23.667zM409.566 869c-1.843 0-3.632-0.67-5.031-1.866l-0.034 0.033c-84.158-73.375-207.921-134.698-313.5-134.7v-318.566c0.002-101.745 35.1-175.698 90.433-232.366 53.038-54.316 126.492-94.529 210.933-125.402l18.002-6.4c91.262 31.846 170.889 73.759 227.366 131.7 55.303 56.743 90.365 130.727 90.368 232.468v318.566c-105.554 0.002-228.881 60.828-313.535 134.7-1.393 1.182-3.171 1.83-5.001 1.833z" />
<glyph unicode="&#xe90c;" glyph-name="twinkle-stars" d="M512 960c135.789 0 266.042-53.919 362.061-149.937s149.939-226.272 149.939-362.063c0-135.789-53.92-266.042-149.939-362.061s-226.272-149.939-362.061-149.939c-135.791 0-266.044 53.92-362.063 149.939s-149.937 226.272-149.937 362.061c0 135.791 53.919 266.044 149.937 362.063s226.272 149.937 362.063 149.937zM682.938 448.063c-12.736 42.559-73.012 42.559-85.812 0l-11.375-38c-2.518-8.468-7.128-16.191-13.375-22.438s-13.97-10.857-22.438-13.375l-37.937-11.375c-42.557-12.737-42.558-73.012 0.063-85.812l37.812-11.315c8.468-2.515 16.191-7.123 22.437-13.37s10.858-13.971 13.375-22.438l11.5-38.003c12.736-42.624 72.95-42.624 85.75 0l11.315 37.875c2.509 8.486 7.11 16.243 13.37 22.502s14.016 10.861 22.502 13.376l38.003 11.373c42.56 12.736 42.56 73.012 0 85.812l-38.003 11.375c-17.216 5.184-30.694 18.66-35.814 35.812l-11.373 38zM436.813 730.687c-17.664 49.792-88.026 49.728-105.626 0l-16.374-46.375c-3.181-9.009-8.307-17.244-15.063-24s-14.991-11.882-24-15.062l-46.437-16.437c-49.728-17.6-49.728-88.026 0-105.626l46.437-16.374c9.009-3.181 17.245-8.307 24-15.063s11.882-14.991 15.063-24l16.374-46.437c17.6-49.728 88.026-49.728 105.626 0l16.437 46.437c3.172 8.996 8.324 17.185 15.062 23.938 6.744 6.755 14.941 11.936 23.938 15.125l46.375 16.374c49.792 17.664 49.792 88.026 0 105.626l-46.375 16.437c-8.991 3.182-17.194 8.319-23.938 15.062s-11.88 14.947-15.062 23.938l-16.437 46.437z" />
<glyph unicode="&#xe90d;" glyph-name="star" d="M432.821 913.329c34.291 62.228 124.377 62.228 158.615 0 45.179-81.896 82.423-167.967 111.077-257 1.354-3.465 3.767-6.45 6.846-8.538 3.082-2.085 6.741-3.185 10.462-3.154 77.047-2 153.847-9.606 229.765-22.846 70.207-12.234 101.171-96.493 47.852-148.693-57.305-56.12-118.587-108.089-183.312-155.461-2.592-1.723-4.576-4.221-5.616-7.154-1.040-2.927-1.071-6.111-0.15-9.077 28.814-86.524 49.373-175.604 61.464-266 9.972-74.776-69.199-120.706-131.003-89.001-75.070 38.392-146.845 82.96-214.538 133.23-3.54 2.505-7.743 3.923-12.078 3.923-4.345 0-8.606-1.41-12.153-3.923-67.731-50.208-139.509-94.775-214.538-133.23-61.803-31.689-140.976 14.234-131 89.001 12.101 90.396 32.701 179.476 61.538 266 0.921 2.966 0.885 6.15-0.154 9.077-1.041 2.933-3.025 5.432-5.615 7.154-57.115 41.8-111.53 87.184-162.923 135.846-6.862 6.512-13.663 13.11-20.385 19.692-53.341 52.146-22.437 136.38 47.769 148.615 75.917 13.24 152.732 20.844 229.77 22.846 3.724-0.037 7.374 1.070 10.461 3.154 3.088 2.086 5.489 5.068 6.846 8.538 28.743 88.992 65.914 175.069 111 257z" />
<glyph unicode="&#xe90e;" glyph-name="glass-filled" horiz-adv-x="960" d="M679.85 960c10.608 0 20.781-4.22 28.282-11.719 7.501-7.501 11.718-17.673 11.718-28.281s-4.218-20.78-11.718-28.281c-7.501-7.499-17.674-11.719-28.282-11.719h-40v-284.595l308.595-514.25c7.28-12.138 11.229-26 11.405-40.157 0.179-14.147-3.405-28.090-10.374-40.403-6.976-12.32-17.114-22.592-29.344-29.722-12.224-7.123-26.131-10.874-40.282-10.874h-799.999c-14.137 0.029-28.015 3.802-40.219 10.938-12.208 7.139-22.324 17.405-29.281 29.718-6.951 12.307-10.526 26.24-10.344 40.374 0.184 14.144 4.131 27.997 11.406 40.125l308.437 514.25v284.595h-40c-10.606 0.002-20.781 4.219-28.281 11.719-7.499 7.501-11.719 17.675-11.719 28.281s4.22 20.78 11.719 28.281c7.5 7.5 17.675 11.717 28.281 11.719h399.999zM399.85 880v-295.686c0.013-7.242-1.946-14.362-5.686-20.563l-122.344-204c70.846-2.451 146.549-23.814 226.094-64.064 113.395-57.395 198.95-62.387 258.749-50.688l-191.094 318.752c-3.741 6.202-5.731 13.322-5.718 20.563v295.686h-160z" />
<glyph unicode="&#xe90f;" glyph-name="upload" d="M932.571 374.857c30.296 0 54.857-24.561 54.857-54.857v-195.072c-0.007-40.404-16.069-79.141-44.646-107.71-28.57-28.577-67.306-44.639-107.71-44.646h-682.715c-40.406 0.007-79.143 16.069-107.714 44.646-28.571 28.57-44.637 67.306-44.643 107.71v195.072c0 30.297 24.56 54.857 54.857 54.857s54.857-24.561 54.857-54.857v-195.072c0.007-11.308 4.504-22.148 12.5-30.142s18.836-12.493 30.143-12.5h682.715c11.308 0.007 22.148 4.506 30.142 12.5s12.493 18.834 12.5 30.142v195.072c0 30.297 24.561 54.857 54.857 54.857zM493.714 960c3.319 0 6.557-0.364 9.714-0.929 0.331-0.059 0.67-0.077 1-0.143 1.445-0.286 2.813-0.817 4.214-1.214 2.011-0.569 4.053-1.054 6-1.857 3.724-1.539 7.17-3.575 10.429-5.857 2.58-1.808 5.124-3.768 7.428-6.071l243.86-243.785c21.402-21.413 21.387-56.149 0-77.572-21.424-21.42-56.151-21.414-77.575 0l-150.214 150.214v-452.786c0-30.297-24.561-54.857-54.857-54.857s-54.857 24.561-54.857 54.857v452.786l-150.143-150.214c-21.421-21.42-56.148-21.414-77.572 0-21.411 21.424-21.419 56.153 0 77.572l243.786 243.785c3.55 3.548 7.555 6.343 11.714 8.714 1.874 1.070 3.711 2.224 5.715 3.071l0.714 0.286c2.228 0.902 4.551 1.474 6.857 2.071 0.959 0.249 1.88 0.66 2.858 0.857 0.402 0.081 0.81 0.142 1.214 0.214 3.152 0.563 6.399 0.857 9.714 0.857z" />
<glyph unicode="&#xe910;" glyph-name="document" horiz-adv-x="918" d="M392.655 838.31c-15.748-5.437-29.406-15.678-39.036-29.276-9.624-13.6-14.727-29.891-14.619-46.552 0.001-16.946 5.086-32.822 14.689-46.379s23.157-24.35 40.102-30l60.003-19.759c8.471-2.881 16.384-7.412 26.55-16.448 6.215-6.215 11.296-13.57 16.38-26.62l3.517-10.552c-2.624 2.63-5.741 4.713-9.174 6.138-3.429 1.424-7.112 2.171-10.826 2.172h-282.483c-7.486 0-14.669-2.985-19.966-8.276-5.298-5.298-8.276-12.508-8.276-20 0.004-7.486 2.982-14.671 8.276-19.964 5.297-5.293 12.478-8.277 19.966-8.277h282.483c6.78-0.004 13.347 2.433 18.481 6.861 5.131 4.431 8.496 10.572 9.484 17.277l8.93-27.069c5.085-14.124 14.128-27.115 29.378-39.036 7.91-5.646 16.377-9.601 25.416-11.861-4.52-9.604-6.794-20.402-6.794-31.137 0-15.254 4.548-30 13.584-42.485 9.096-12.422 21.515-21.455 36.762-27.101l42.997-14.138c4.52-1.695 9.061-4.509 12.45-7.899 3.386-2.881 5.452-6.582 7.034-10.311v-321.55c0-29.961-11.889-58.707-33.068-79.897-21.186-21.186-49.936-33.1-79.897-33.103h-452.001c-29.964 0.004-58.709 11.914-79.897 33.103-21.183 21.19-33.103 49.936-33.103 79.897v677.931c0 29.962 11.921 58.707 33.103 79.896 21.188 21.188 49.933 33.101 79.897 33.103h306.794l-27.14-8.69zM197.759 225.552c-7.488 0-14.669-2.984-19.966-8.277-5.295-5.293-8.273-12.479-8.276-19.964 0-7.493 2.978-14.703 8.276-20 5.296-5.289 12.479-8.277 19.966-8.277h282.483c7.486 0 14.668 2.984 19.964 8.277 5.297 5.297 8.277 12.507 8.277 20-0.004 7.486-2.98 14.671-8.277 19.964s-12.475 8.277-19.964 8.277h-282.483zM197.759 423.276c-7.491 0-14.668-2.98-19.966-8.277s-8.276-12.472-8.276-19.964c0-7.493 2.978-14.668 8.276-19.964s12.474-8.277 19.966-8.277h282.483c7.489 0 14.668 2.98 19.964 8.277s8.277 12.475 8.277 19.964c0 7.489-2.98 14.668-8.277 19.964s-12.475 8.277-19.964 8.277h-282.483zM761.828 620.966c3.531-0.002 6.981-1.095 9.862-3.138 2.885-2.046 5.071-4.94 6.239-8.276l14.106-43.174c4.375-13.132 11.765-25.067 21.55-34.862 9.781-9.788 21.705-17.161 34.827-21.55l43.276-14.036 0.862-0.205c3.312-1.197 6.186-3.397 8.21-6.278 2.016-2.878 3.1-6.31 3.104-9.827 0-3.52-1.080-6.981-3.104-9.862-2.023-2.878-4.901-5.046-8.21-6.239l-43.206-14.036c-13.143-4.382-25.099-11.755-34.897-21.553-9.792-9.792-17.168-21.726-21.55-34.862l-14.071-43.17c-1.169-3.337-3.354-6.232-6.239-8.277s-6.328-3.136-9.862-3.139c-3.535 0-6.981 1.098-9.862 3.139-2.885 2.044-5.071 4.94-6.243 8.277l-14.001 43.17c-4.364 13.174-11.751 25.144-21.55 34.968-9.809 9.827-21.794 17.228-34.964 21.621l-43.209 14.068c-3.312 1.197-6.183 3.393-8.206 6.275-2.020 2.881-3.1 6.313-3.104 9.83 0 3.52 1.080 6.981 3.104 9.862 2.023 2.878 4.898 5.046 8.206 6.239l43.209 14.036c12.984 4.491 24.77 11.9 34.413 21.688 9.64 9.788 16.875 21.681 21.172 34.724l14.032 43.174c1.169 3.332 3.33 6.231 6.208 8.276 2.885 2.046 6.359 3.138 9.897 3.138zM591.999 960.069c4.965 0 9.82-1.573 13.863-4.448 4.040-2.875 7.094-6.868 8.725-11.552l19.654-60.517c6.105-18.408 16.451-35.124 30.173-48.827s30.448-24.027 48.862-30.103l61.691-20c4.664-1.643 8.725-4.686 11.585-8.724 2.853-4.034 4.378-8.852 4.378-13.793 0-4.948-1.518-9.79-4.378-13.828-2.86-4.036-6.921-7.082-11.585-8.724l-60.483-19.655c-18.421-6.077-35.173-16.399-48.898-30.103-13.718-13.703-24.036-30.423-30.137-48.828l-19.689-60.449c-1.645-4.664-4.689-8.725-8.725-11.585-4.032-2.853-8.852-4.378-13.792-4.378-4.947 0-9.792 1.522-13.828 4.378-4.040 2.86-7.083 6.921-8.725 11.585l-19.724 60.449c-6.052 18.443-16.335 35.214-30.035 48.966-13.715 13.781-30.48 24.182-48.93 30.31l-60.518 19.655c-4.664 1.643-8.725 4.687-11.585 8.724-2.857 4.036-4.378 8.883-4.378 13.828 0.004 4.939 1.525 9.762 4.378 13.793 2.86 4.037 6.921 7.081 11.585 8.724l60.518 19.655c18.185 6.24 34.675 16.62 48.17 30.31 13.499 13.694 23.644 30.346 29.622 48.621l19.657 60.448c1.628 4.684 4.682 8.746 8.722 11.621 4.040 2.872 8.873 4.445 13.828 4.448z" />
<glyph unicode="&#xe911;" glyph-name="back" horiz-adv-x="1396" d="M514.455 946.936c18.454 17.844 47.937 17.338 65.818-1.091 17.853-18.454 17.341-47.935-1.091-65.818l-397.546-385.455h1165.184c25.693 0 46.536-20.847 46.545-46.545 0-25.706-20.843-46.545-46.545-46.545h-1165.184l397.546-385.451c18.439-17.883 18.937-47.365 1.091-65.825-17.883-18.441-47.361-18.944-65.818-1.089l-514.455 498.91 514.455 498.909z" />
<glyph unicode="&#xe912;" glyph-name="X" horiz-adv-x="838" d="M144.797 959.992l261.818-422.479h7.934l261.818 422.479h144.794l-319.339-507.768 319.339-507.771h-144.794l-261.818 414.548h-7.934l-261.818-414.548h-144.793l327.273 507.771-327.273 507.768h144.793z" />
<glyph unicode="&#xe913;" glyph-name="stomach" horiz-adv-x="1152" d="M482.377 730.833c0.004-51.202 27.345-98.492 73.084-126.458l19.375-12.375c53.12-32.466 71.642-97.233 42.999-150.541-20.736-39.723-63.859-64.461-112.499-64.461h-177.294c-136.177 0-246.959-103.484-246.959-230.622v-170.125l-81.083-0.043v170.167c0.011 168.721 147.146 305.954 328 305.958h176.124c17.374 0 33.024 9.033 40.836 23.497 9.924 19.435 3.332 42.812-15.458 54.17l-19.418 12.374c-68.070 42.151-108.834 112.66-108.834 188.459v229.167h81.126v-229.167zM657.293 832.125c-0.034-14.083 5.952-26.933 16.832-36.125 9.604-8.102 21.073-12.375 33.041-12.375 2.078 0.001 4.224 0.114 6.336 0.375l57.83 5.625c12.006 1.247 24.26 1.874 36.335 1.875 86.050 0 166.895-32.143 227.584-90.542l23.458-22.583-2.667 0.5c54.571-63.975 78.012-145.435 64.666-227.79l-4.834-25.877c-35.546-214.289-230.891-369.958-464.414-369.958-65.417 0.004-132.062 14.605-192.708 42.21l-128.21 58.999c-8.049 3.772-16.093 5.705-24 5.709-28.684 0-52.916-22.554-52.916-49.207v-136.708h-81.208v136.789c0.003 68.672 60.14 124.497 134 124.501 20.417 0 41.118-4.595 59.875-13.291l128.125-59.004c49.455-22.942 102.289-34.581 157.043-34.581 193.813 0.009 355.644 128.981 384.789 306.667l4.834 25.792c11.375 67.657-11.618 135.245-63.083 185.208-45.709 43.395-106.586 67.33-171.294 67.334-8.619 0-17.374-0.405-25.958-1.292l-57.54-5.583c-5.154-0.655-10.709-1-16.252-1-30.652 0.003-61.299 11.085-86.374 31.167-28.224 22.684-44.373 56.236-44.373 92.083v128.958h81.084v-127.875zM807.168 689.458c57.075-0.004 110.012-21.285 149.039-59.917 45.359-43.332 65.634-102.796 55.458-162.999l-6.622-35.375-79.586 12.122 6.583 35.379c5.547 37.193-6.601 72.636-34.334 99.456-23.45 22.844-56.422 35.955-90.539 35.959h-10.628v75.375h10.628z" />
<glyph unicode="&#xe914;" glyph-name="checkmark-btn" horiz-adv-x="1408" d="M0.023 466.374l103.636 106.364 360-354.546 744.545 741.819 106.368-106.364-850.913-848.182-463.637 460.909z" />
<glyph unicode="&#xe915;" glyph-name="circles" d="M640 576c0-141.384-114.616-256-256-256-19.775 0-39.027 2.243-57.513 6.487 26.1-113.69 127.904-198.487 249.513-198.487 141.384 0 256 114.616 256 256 0 121.61-84.797 223.414-198.487 249.513 4.244-18.487 6.487-37.739 6.487-57.513zM257.443 353.418c-77.314 44.058-129.443 127.231-129.443 222.582 0 141.385 114.615 256 256 256 95.35 0 178.524-52.129 222.582-129.443 162.386-15.394 289.418-152.14 289.418-318.557 0-176.732-143.268-320-320-320-166.417 0-303.163 127.032-318.557 289.418zM259.284 430.013c20.147 139.906 130.798 250.555 270.702 270.702-35.217 41.181-87.554 67.284-145.987 67.284-106.039 0-192-85.962-192-192 0-58.433 26.103-110.769 67.284-145.987z" />
<glyph unicode="&#xe916;" glyph-name="microbiom" horiz-adv-x="896" d="M403.258 929.292c-6.317 12.886-17.434 22.783-30.963 27.568s-28.397 4.078-41.411-1.969c-13.014-6.048-23.14-16.955-28.206-30.382s-4.669-28.305 1.107-41.443l21.871-47.104c-16.824-13.385-33.72-29.842-50.251-48.494l-41.618 38.766c-10.741 9.175-24.608 13.854-38.713 13.060s-27.359-6.998-37.003-17.321c-9.644-10.323-14.934-23.968-14.768-38.094s5.775-27.643 15.659-37.737l50.907-47.543c-10.567-17.092-20.425-34.612-29.549-52.516l-54.638 23.333c-6.628 2.828-13.748 4.324-20.953 4.401s-14.356-1.266-21.043-3.952c-6.687-2.686-12.779-6.663-17.928-11.704s-9.256-11.046-12.085-17.674c-2.829-6.628-4.324-13.748-4.402-20.955-0.077-7.203 1.266-14.355 3.952-21.040 2.686-6.688 6.663-12.781 11.704-17.93s11.046-9.258 17.674-12.086l55.662-23.696-1.17-3.658c-6.778-21.309-12.337-43.082-16.676-65.318l-58.734 7.315c-14.443 1.805-29.010-2.202-40.498-11.139s-18.955-22.070-20.759-36.512c-1.804-14.442 2.203-29.011 11.14-40.499s22.071-18.954 36.513-20.758l63.342-7.827c0.683-20.576 2.975-41.008 6.876-61.293l-49.152-21.942c-6.584-2.944-12.523-7.158-17.476-12.4s-8.826-11.408-11.393-18.147c-2.568-6.739-3.782-13.917-3.572-21.126s1.839-14.307 4.794-20.886c12.434-27.648 44.836-40.006 72.484-27.648l41.911 18.726c15.726-28.086 35.986-54.931 61.66-80.019l-35.109-42.131c-8.901-11.216-13.063-25.472-11.595-39.718 1.468-14.243 8.448-27.35 19.45-36.518s25.153-13.67 39.429-12.547c14.277 1.126 27.547 7.789 36.977 18.57l38.839 46.592c32.036-18.141 64.148-30.72 95.744-38.547v-25.453c0.010-7.206 1.437-14.336 4.205-20.989 2.765-6.653 6.813-12.694 11.914-17.782 5.101-5.085 11.155-9.117 17.814-11.866s13.792-4.157 20.998-4.147c7.203 0.010 14.333 1.437 20.986 4.202 6.653 2.768 12.694 6.816 17.782 11.917 5.085 5.101 9.12 11.152 11.866 17.811 2.749 6.659 4.16 13.795 4.15 20.998v17.482c40.221 4.176 79.181 16.442 114.541 36.061l45.13-48.566c9.901-10.662 23.635-16.95 38.173-17.485 14.541-0.534 28.698 4.726 39.357 14.63s16.95 23.635 17.485 38.176c0.534 14.541-4.73 28.698-14.63 39.357l-41.107 44.25c17.334 21.066 31.523 44.618 42.131 69.632l62.464-8.41c14.422-1.939 29.024 1.93 40.595 10.755s19.162 21.888 21.101 36.31c1.939 14.426-1.93 29.027-10.758 40.598-8.826 11.568-21.888 19.158-36.31 21.098l-55.882 7.462c-0.301 27.328-4.739 54.458-13.165 80.458l42.861 18.285c13.386 5.702 23.958 16.49 29.389 29.987 5.434 13.498 5.28 28.598-0.422 41.984s-16.49 23.958-29.987 29.389c-13.498 5.434-28.602 5.28-41.987-0.422l-52.077-22.237c-2.877 3.658-5.827 7.315-8.851 10.973-9.507 14.115-12.726 30.134-11.482 51.565 0.534 7.802 1.437 15.677 2.704 23.626h65.536c14.55 0 28.502 5.779 38.79 16.067s16.067 24.24 16.067 38.79c0 14.547-5.779 28.501-16.067 38.789s-24.24 16.067-38.79 16.067h-48.858c0.701 17.612-0.723 35.245-4.243 52.517l52.883 35.255c11.93 8.144 20.166 20.665 22.922 34.844s-0.195 28.873-8.208 40.892c-8.013 12.019-20.442 20.392-34.589 23.302s-28.874 0.124-40.979-7.756l-44.691-29.842c-11.043 11.684-23.472 21.976-37.011 30.647l19.238 30.208c7.328 12.26 9.587 26.896 6.294 40.795s-11.878 25.966-23.926 33.635c-12.051 7.669-26.621 10.335-40.605 7.431-13.987-2.904-26.288-11.148-34.291-22.981l-31.888-50.176c-27.571 3.756-55.584 2.716-82.8-3.072l-21.795 46.812v0.073zM566.586 282.563c0.342-12.016-1.728-23.978-6.090-35.181-4.362-11.2-10.925-21.414-19.302-30.035-8.378-8.618-18.4-15.472-29.472-20.15s-22.973-7.091-34.992-7.091c-12.019 0-23.92 2.413-34.992 7.091s-21.094 11.533-29.472 20.15c-8.378 8.621-14.941 18.835-19.302 30.035-4.362 11.203-6.432 23.165-6.090 35.181 0.669 23.386 10.426 45.594 27.206 61.901 16.778 16.304 39.251 25.427 62.65 25.427s45.872-9.123 62.65-25.427c16.781-16.307 26.538-38.515 27.206-61.901zM460.528 556.557c19.498 0 38.192 7.744 51.978 21.53s21.533 32.483 21.533 51.978c0 19.496-7.747 38.194-21.533 51.979s-32.48 21.53-51.978 21.53c-19.494 0-38.192-7.745-51.978-21.53s-21.53-32.483-21.53-51.979c0-19.494 7.744-38.192 21.53-51.978s32.483-21.53 51.978-21.53zM249.292 448.742c0 14.55 5.78 28.502 16.067 38.79s24.241 16.067 38.79 16.067c14.549 0 28.504-5.779 38.788-16.067 10.288-10.288 16.067-24.24 16.067-38.79 0-14.547-5.779-28.502-16.067-38.787-10.285-10.288-24.239-16.070-38.788-16.070s-28.502 5.782-38.79 16.070c-10.288 10.285-16.067 24.24-16.067 38.787z" />
<glyph unicode="&#xe917;" glyph-name="sand-clock" horiz-adv-x="751" d="M637.157 960c0-32.586-2.915-62.805-8.376-91.022h-436.177c29.082-116.144 116.599-192.466 243.484-292.544-23.576-20.217-47.582-39.929-71.997-59.119-148.822 117.964-273.068 230.24-273.068 442.685h-91.022c0-248.764 146.091-385.205 290.634-500.623-144.543-115.459-290.634-251.856-290.634-500.62h91.022c0 225.734 140.174 338.33 301.194 464.848l4.185 3.277c156.515 122.972 331.776 260.643 331.776 533.118h-91.020zM628.78 49.777h-436.177c29.992 119.876 122.288 197.291 255.864 302.196 20.159 15.927 40.414 31.72 60.392 47.831 117.647-104.219 219.317-233.516 219.317-441.047h-91.020c-0.061 32.495-2.854 62.836-8.376 91.020z" />
<glyph unicode="&#xe918;" glyph-name="bacteria" horiz-adv-x="986" d="M282.948 878.575c52.887-4.023 100.028-28.596 133.456-65.75l58.44 58.439 38.112-38.109-65.76-65.76c13.145-26.664 20.533-56.678 20.533-88.417 0-62.58 21.963-120.032 58.596-165.069l60.936 60.932 38.112-38.108-60.939-60.936c45.037-36.633 102.491-58.596 165.069-58.596 17.658 0 34.778-2.283 51.090-6.576l44.916 77.797 46.675-26.946-41.415-71.737c59.187-34.774 98.918-99.104 98.918-172.715 0-29.305-6.299-57.135-17.613-82.22l70.538-40.725-26.946-46.672-72.192 41.677c-36.72-44.142-92.065-72.241-153.972-72.241-5.147 0-10.278 0.057-15.398 0.174v-81.017h-53.893v84.423c-82.785 8.609-161.041 32.476-231.898 68.729l-41.188-71.339-46.675 26.95 40.921 70.876c-53.199 32.946-101.386 73.22-143.149 119.41l-70.955-70.956-38.112 38.108 74.432 74.43c-44.132 57.602-79.018 122.664-102.432 192.967l-80.708-21.625-13.949 52.061 79.736 21.364c-12.329 50.502-18.866 103.277-18.866 157.578 0 18.351 2.469 36.123 7.093 53.006l-74.461 42.992 26.947 46.673 68.865-39.759c28.677 47.753 76.705 82.559 133.241 93.572v84.54h53.895v-81.425zM267.55 825.263c-80.791 0-146.286-65.496-146.286-146.287 0-335.921 272.321-608.241 608.238-608.241 80.794 0 146.288 65.498 146.288 146.288s-65.494 146.284-146.288 146.284c-174.338 0-315.669 141.331-315.669 315.669 0 80.791-65.492 146.287-146.283 146.287zM256 690.526c-14.883 0-26.948-12.065-26.948-26.948s12.065-26.948 26.948-26.948c14.883 0 26.948 12.065 26.948 26.948s-12.065 26.948-26.948 26.948zM175.158 663.579c0 44.649 36.193 80.842 80.842 80.842s80.842-36.193 80.842-80.842c0-44.649-36.193-80.842-80.842-80.842s-80.842 36.193-80.842 80.842zM471.579 286.314c0 14.886 12.064 26.95 26.946 26.95 14.886 0 26.95-12.064 26.95-26.95 0-14.882-12.064-26.946-26.95-26.946-14.882 0-26.946 12.064-26.946 26.946zM498.525 367.157c-44.646 0-80.839-36.193-80.839-80.843 0-44.646 36.193-80.839 80.839-80.839 44.65 0 80.843 36.193 80.843 80.839 0 44.65-36.193 80.843-80.843 80.843zM363.789 448c0-29.764-24.128-53.897-53.895-53.897s-53.895 24.132-53.895 53.897c0 29.764 24.128 53.897 53.895 53.897s53.895-24.132 53.895-53.897zM714.103 178.525c29.768 0 53.897 24.128 53.897 53.897 0 29.764-24.128 53.893-53.897 53.893-29.764 0-53.893-24.128-53.893-53.893 0-29.768 24.128-53.897 53.893-53.897z" />
<glyph unicode="&#xe919;" glyph-name="chat" d="M340.278 936.037c65.624 21.283 135.005 28.484 203.611 21.222 20.301-2.15 35.029-20.366 32.89-40.667-2.167-20.293-20.371-34.979-40.668-32.833-58.293 6.17-117.241-0.028-173-18.111-55.753-18.082-107.094-47.688-150.666-86.889-43.573-39.208-78.428-87.178-102.278-140.722-23.843-53.539-36.167-111.504-36.167-170.111-0.044-44.847 7.11-89.49 21.222-132.054 27.524-82.734 11.114-176.361-9.556-232.892 5.457 1.542 11.538 3.379 18.445 5.558 14.194 4.477 31.562 9.99 50.5 13.557 39.803 7.487 86.096 6.195 139.445-22.556l22.5-11.224c53.371-24.701 112.819-38.497 175.556-38.497 110.877 0 217.202 44.043 295.612 122.442 78.382 78.387 122.47 184.707 122.499 295.555l-0.609 22.278c-0.387 7.351-0.978 14.661-1.724 21.889-2.094 20.306 12.692 38.51 33.001 40.611 20.304 2.1 38.497-12.696 40.607-33 1.758-16.996 2.634-34.219 2.668-51.611 0-130.488-51.849-255.724-144.111-347.997-92.274-92.279-217.446-144.162-347.944-144.168-79.007 0-153.76 18.66-220 51.775l-13.111 6.832c-36.114 19.467-64.722 19.883-90.667 15.002-13.912-2.617-27.182-6.764-42-11.446-13.916-4.392-30.472-9.643-47.111-12.163l-0.278-0.057c-9.758-1.399-19.729-0.466-29.056 2.725-9.316 3.186-17.761 8.533-24.611 15.61l-0.333 0.387c-9.188 9.762-15.298 22.056-17.5 35.277-2.145 12.942-0.429 26.22 4.833 38.224 17.615 41.426 32.985 117.288 16.5 181.777l-3.722 12.777c-14.539 43.844-22.856 89.522-24.667 135.612l-0.389 19.777c0 68.977 14.548 137.212 42.611 200.222 28.069 63.012 69.056 119.471 120.333 165.612 51.282 46.139 111.714 80.995 177.333 102.278zM301.389 515.759c26.451-0.007 47.889-21.436 47.889-47.888-0.010-26.444-21.445-47.882-47.889-47.889h-0.444c-26.45 0-47.879 21.441-47.889 47.889 0 26.457 21.432 47.888 47.889 47.888h0.444zM492.722 515.759c26.449-0.009 47.889-21.437 47.889-47.888-0.010-26.443-21.446-47.881-47.889-47.889h-0.389c-26.45 0-47.879 21.441-47.889 47.889 0 26.457 21.432 47.888 47.889 47.888h0.389zM741.888 929.148c8.175 41.060 67.044 41.056 75.224 0l0.108 0.056c6.872-33.538 23.404-64.352 47.61-88.556 21.197-21.183 47.462-36.52 76.169-44.611l12.669-3.056c40.619-8.641 40.613-66.691 0-75.333l-0.222-0.056c-33.536-6.863-64.353-23.412-88.559-47.611-24.201-24.205-40.744-55.021-47.61-88.556l-0.057-0.222c-8.624-40.647-66.702-40.646-75.332 0l-0.057 0.222c-6.861 33.534-23.467 64.35-47.667 88.556-24.195 24.191-54.977 40.743-88.496 47.611l-0.279 0.056c-40.641 8.628-40.637 66.7 0 75.333l0.279 0.056c33.525 6.868 64.302 23.468 88.496 47.667 24.218 24.222 40.869 54.941 47.724 88.444zM779.497 829.426c-9.506-14.717-20.497-28.55-32.996-41.056-12.51-12.507-26.345-23.5-41.057-33 14.729-9.507 28.535-20.592 41.057-33.111 12.487-12.491 23.512-26.254 32.996-40.945 9.5 14.709 20.611 28.441 33.115 40.945 12.504 12.501 26.237 23.615 40.943 33.111-14.7 9.491-28.501 20.507-41 33-12.521 12.518-23.546 26.327-33.058 41.056z" />
<glyph unicode="&#xe91a;" glyph-name="dashboard" d="M188.722 353.166c34.72 0 64.484 0.080 88.167-3.112 24.711-3.328 48.246-10.82 67.333-29.889 19.187-19.098 26.721-42.741 30.056-67.499 3.19-23.689 3.111-53.447 3.111-88.166 0-34.714 0.077-64.484-3.111-88.166-3.33-24.718-10.867-48.242-29.945-67.334l0.056-0.057c-19.1-19.183-42.741-26.721-67.5-30.054-23.687-3.191-53.45-3.112-88.167-3.112-34.715 0-64.484-0.074-88.166 3.112-24.764 3.339-48.39 10.849-67.5 29.998l0.056 0.057c-19.12 19.081-26.67 42.615-30 67.334-3.191 23.694-3.111 53.493-3.111 88.223 0 34.685-0.076 64.427 3.111 88.11 3.334 24.758 10.849 48.39 30 67.504h0.056c19.078 19.103 42.625 26.613 67.333 29.941 23.693 3.191 53.494 3.112 88.222 3.112zM694.391 49.778c20.417-0.006 36.944-16.577 36.944-37.001 0-20.417-16.526-36.995-36.944-37.001h-50.557c-20.423 0-37.001 16.577-37.001 37.001s16.577 37.001 37.001 37.001h50.557zM795.5 353.166c34.702 0 64.472 0.080 88.166-3.112 24.764-3.334 48.384-10.837 67.499-29.998 19.081-19.132 26.55-42.729 29.889-67.499 3.197-23.723 3.169-53.51 3.169-88.28 0-34.753 0.074-64.552-3.112-88.28-3.334-24.781-10.86-48.407-29.998-67.556-27.54-27.534-65.121-31.46-103.947-32.609-20.4-0.597-37.444 15.434-38.053 35.834-0.609 20.412 15.474 37.45 35.886 38.053 39.748 1.178 49.010 6.178 53.834 11.002 3.1 3.106 6.713 8.528 8.943 25.111 2.372 17.658 2.446 41.597 2.446 78.444 0 36.824-0.068 60.746-2.446 78.387-2.236 16.589-5.888 22.050-9 25.168-3.083 3.089-8.488 6.719-24.997 8.943-17.607 2.372-41.495 2.446-78.279 2.446-20.406 0.011-36.932 16.538-36.944 36.944 0 20.417 16.532 36.989 36.944 37.001zM492.111 213.111c20.422 0 37-16.577 37-37.001v-139.947c0-20.417-16.577-36.995-37-36.995s-37 16.577-37 36.995v139.947c0 20.423 16.578 37.001 37 37.001zM188.722 279.222c-36.821 0-60.725-0.074-78.333-2.446-16.543-2.224-21.896-5.882-24.945-8.943l-0.055-0.057c-3.090-3.083-6.717-8.471-8.945-24.997-2.371-17.607-2.445-41.489-2.445-78.279 0-36.824 0.073-60.723 2.445-78.336 1.667-12.373 4.091-18.489 6.5-22.050l2.389-2.89 0.111-0.057c3.088-3.095 8.436-6.719 24.945-8.943 17.601-2.372 41.508-2.446 78.333-2.446 36.801 0 60.674 0.074 78.278 2.446 16.533 2.224 21.895 5.825 24.945 8.886l0.111 0.114c3.091 3.089 6.722 8.459 8.945 24.94 2.371 17.601 2.444 41.512 2.444 78.336 0 36.796-0.076 60.672-2.444 78.279-2.228 16.543-5.882 21.897-8.945 24.946l-0.056 0.108c-3.089 3.095-8.476 6.719-25 8.943-17.598 2.372-41.466 2.446-78.278 2.446zM643.834 353.166c20.412-0.011 36.944-16.583 36.944-37.001v-75.833c0-30.094 7.691-32.592 8.556-33.052 2.736-1.53 8.010-3.368 18.057-4.5 10.018-1.132 22.073-1.337 37.552-1.337 23.211 0 45.477-9.205 61.889-25.611 16.418-16.418 25.668-38.724 25.668-61.941-0.011-20.412-16.589-36.949-37.001-36.949-20.406 0.011-36.932 16.543-36.944 36.949 0 3.595-1.456 7.060-3.999 9.609-2.549 2.549-6.007 3.999-9.614 3.999-15.241 0-31.186 0.171-45.887 1.832-14.683 1.661-30.913 5.097-45.778 13.392-34.372 19.2-46.444 54.733-46.444 97.61v75.833c0 20.423 16.577 37.001 37.001 37.001zM947.223 504.889c20.423 0 37.001-16.578 37.001-37s-16.577-37-37.001-37h-303.388c-36.784 0-60.672-0.075-78.279-2.445-16.54-2.228-21.916-5.853-25-8.945l-0.111-0.055c-3.062-3.049-6.661-8.402-8.889-24.945-2.371-17.611-2.445-41.51-2.445-78.334-0.010-20.412-16.584-36.944-37-36.944s-36.99 16.532-37 36.944c0 34.731-0.080 64.529 3.111 88.223 3.33 24.717 10.88 48.251 30 67.333 19.115 19.157 42.684 26.721 67.445 30.056 23.69 3.19 53.465 3.111 88.168 3.111h303.388zM340.389 504.889c20.422 0 37-16.578 37-37s-16.578-37-37-37h-303.389c-20.422 0-37 16.578-37 37s16.578 37 37 37h303.389zM188.722 960c34.72 0 64.484 0.079 88.167-3.111 24.756-3.336 48.338-10.857 67.444-30l-0.055-0.056c19.126-19.083 26.669-42.613 30-67.333 3.191-23.693 3.111-53.494 3.111-88.222 0-34.72 0.080-64.484-3.111-88.167-3.33-24.711-10.877-48.191-29.945-67.277l0.056-0.056c-19.1-19.187-42.741-26.721-67.5-30.056-23.688-3.19-53.448-3.111-88.167-3.111-34.716 0-64.483-0.077-88.166 3.111-24.765 3.337-48.39 10.846-67.5 30l0.056 0.056c-19.116 19.083-26.671 42.617-30 67.333-3.189 23.687-3.111 53.45-3.111 88.167 0 34.701-0.079 64.475 3.111 88.166 3.335 24.761 10.843 48.385 30 67.5l0.056-0.056c19.082 19.12 42.616 26.67 67.333 30 23.693 3.191 53.494 3.111 88.222 3.111zM795.557 960c34.719 0 64.484 0.079 88.166-3.111 24.752-3.336 48.338-10.857 67.442-30l-0.051-0.056c19.12-19.083 26.664-42.613 29.998-67.333 3.191-23.693 3.112-53.494 3.112-88.222 0-34.72 0.080-64.484-3.112-88.167-3.334-24.711-10.877-48.191-29.946-67.277l0.057-0.056c-19.098-19.187-42.741-26.721-67.499-30.056-23.689-3.19-53.447-3.111-88.166-3.111s-64.484-0.077-88.166 3.111c-24.764 3.337-48.39 10.846-67.504 30l0.057 0.056c-19.115 19.083-26.67 42.617-29.998 67.333-3.191 23.687-3.112 53.45-3.112 88.167 0 34.701-0.080 64.475 3.112 88.166 3.334 24.761 10.843 48.385 29.998 67.5l0.057-0.056c19.081 19.12 42.615 26.67 67.334 30 23.694 3.191 53.493 3.111 88.223 3.111zM492.111 960c20.422 0 37-16.578 37-37v-252.834c0-20.422-16.577-37-37-37s-37 16.578-37 37v252.834c0 20.422 16.578 37 37 37zM188.722 886c-36.824 0-60.725-0.073-78.333-2.445-16.543-2.228-21.896-5.827-24.945-8.889l-0.055-0.111c-3.091-3.084-6.717-8.461-8.945-25-2.369-17.607-2.445-41.492-2.445-78.277 0-36.801 0.076-60.674 2.445-78.278 2.227-16.533 5.828-21.895 8.889-24.945l0.111-0.111c3.091-3.091 8.462-6.722 24.945-8.945 17.601-2.371 41.508-2.444 78.333-2.444 36.797 0 60.675 0.076 78.278 2.444 16.543 2.228 21.896 5.882 24.945 8.945l0.111 0.056c3.096 3.089 6.718 8.476 8.945 25 2.37 17.598 2.444 41.466 2.444 78.278 0 36.821-0.073 60.725-2.444 78.333-2.228 16.543-5.882 21.896-8.945 24.945l-0.056 0.055c-3.089 3.096-8.477 6.719-25 8.945-17.599 2.371-41.463 2.445-78.278 2.445zM795.557 886c-36.824 0-60.729-0.073-78.336-2.445-16.543-2.228-21.897-5.827-24.946-8.889l-0.051-0.111c-3.095-3.084-6.719-8.461-8.949-25-2.367-17.607-2.441-41.492-2.441-78.277 0-36.801 0.074-60.674 2.441-78.278 2.23-16.533 5.831-21.895 8.892-24.945l0.108-0.111c3.095-3.091 8.465-6.722 24.946-8.945 17.601-2.371 41.512-2.444 78.336-2.444 36.796 0 60.672 0.076 78.279 2.444 16.538 2.228 21.891 5.882 24.94 8.945l0.114 0.056c3.095 3.089 6.719 8.476 8.943 25 2.372 17.598 2.446 41.466 2.446 78.278 0 36.821-0.074 60.725-2.446 78.333-2.23 16.543-5.882 21.896-8.943 24.945l-0.057 0.055c-3.089 3.096-8.476 6.719-24.997 8.945-17.601 2.371-41.466 2.445-78.279 2.445z" />
<glyph unicode="&#xe91b;" glyph-name="test-tube" horiz-adv-x="796" d="M492.111 960c20.423 0 37-16.578 37-37s-16.577-37-37-37h-8.556v-327.111c-0.012-20.405-16.54-36.932-36.944-36.945-20.409 0.008-36.988 16.537-37 36.945v54.055h-290.111v-418.111c0-38.468 15.243-75.406 42.444-102.61s64.142-42.439 102.611-42.445c38.459 0.006 75.355 15.258 102.555 42.445 27.205 27.204 42.501 64.137 42.501 102.61 0.006 20.412 16.588 36.938 37 36.944 20.408-0.011 36.938-16.532 36.944-36.944 0-58.089-23.092-113.812-64.167-154.891-41.070-41.057-96.76-64.159-154.833-64.165-58.083 0.006-113.818 23.097-154.889 64.165-41.070 41.079-64.166 96.808-64.166 154.891v691.167h-8.5c-20.422 0-37 16.577-37 37s16.578 37 37 37h455.111zM560.389 573.167c15.463 0 29.293-9.669 34.669-24.167l11.776-31.722 10.502-27.778c8.772-22.442 13.13-30.399 19.223-36.5 6.064-6.065 13.989-10.443 36.443-19.222l27.779-10.5 31.721-11.722c14.501-5.368 24.155-19.206 24.166-34.667 0-15.474-9.66-29.298-24.166-34.668l-31.721-11.776c-44.743-16.549-56.144-21.584-64.279-29.724-8.084-8.084-13.119-19.473-29.668-64.222l-11.776-31.721c-5.37-14.507-19.2-24.166-34.669-24.166-15.462 0.011-29.299 9.665-34.667 24.166l-11.722 31.721c-16.547 44.743-21.642 56.144-29.778 64.279-6.064 6.053-14.010 10.394-36.445 19.166l-27.778 10.502-31.722 11.776c-14.498 5.376-24.167 19.206-24.167 34.668 0.010 15.459 9.669 29.297 24.167 34.667l31.722 11.722 27.778 10.5c22.475 8.788 30.396 13.173 36.5 19.278 8.086 8.089 13.166 19.454 29.722 64.222l11.722 31.722 2.389 5.222c6.456 11.549 18.756 18.935 32.278 18.945zM560.389 435.111c-6.554-13.022-13.979-24.534-23.834-34.389-9.861-9.856-21.329-17.28-34.334-23.834 13.001-6.548 24.491-13.995 34.334-23.831 9.852-9.859 17.284-21.339 23.834-34.338 6.546 12.999 13.995 24.439 23.831 34.281 9.865 9.859 21.328 17.334 34.332 23.888-12.988 6.542-24.439 14-34.276 23.834-9.87 9.875-17.33 21.361-23.888 34.389zM119.5 686.889h290.111v199.111h-290.111v-199.111z" />
<glyph unicode="&#xe91c;" glyph-name="home" horiz-adv-x="967" d="M707.726 348.058c26.448-0.017 47.889-21.441 47.889-47.889v-95.835c-0.028-26.425-21.458-47.872-47.889-47.889h-95.835c-26.431 0.011-47.861 21.458-47.887 47.889v95.835c0 26.448 21.439 47.872 47.887 47.889h95.835zM468.171 960c37.948-0.002 71.417-13.031 106.498-34.167 34.247-20.632 73.37-51.144 122.112-89.056l95.835-74.5c60.632-47.186 101.194-77.594 122.891-121.944 21.692-44.362 20.776-94.996 20.776-171.944v-120.28c0-77.983 0.097-140.197-6.446-188.888-6.69-49.755-20.929-90.931-53.498-123.5-32.563-32.54-73.705-46.757-123.443-53.441-48.697-6.542-110.962-6.502-188.947-6.502h-191.611c-77.974 0-140.202-0.040-188.889 6.502-49.748 6.69-90.937 20.878-123.5 53.441-32.559 32.569-46.756 73.751-53.444 123.5-6.543 48.691-6.5 110.905-6.5 188.888v120.28c0 76.942-0.855 127.585 20.833 171.944 21.694 44.348 62.193 74.742 122.889 121.944l130.666 101.5c33.166 25.533 61.596 46.58 87.278 62.056 35.082 21.136 68.556 34.16 106.5 34.167zM468.171 886c-19.517-0.006-39.6-6.19-68.333-23.5-29.595-17.834-64.73-45.102-114.889-84.111l-95.778-74.5c-66.394-51.635-89.475-70.679-101.889-96.056-12.408-25.382-13.278-55.276-13.278-139.444v-120.28c0-80.082 0.049-136.431 5.778-179.052 5.586-41.552 15.973-64.466 32.5-80.998 16.532-16.532 39.457-26.914 81-32.501 42.618-5.729 98.986-5.78 179.056-5.78h191.611c80.073 0 136.49 0.051 179.111 5.78 41.54 5.586 64.466 15.974 80.998 32.501 16.532 16.532 26.914 39.447 32.501 80.998 5.729 42.621 5.78 98.97 5.78 179.052v120.28c0 84.181-0.865 114.061-13.278 139.444-12.419 25.376-35.51 44.447-101.888 96.111l-95.778 74.445c-50.159 39.008-85.296 66.28-114.89 84.111-28.739 17.312-48.812 23.499-68.334 23.5z" />
<glyph unicode="&#xe91d;" glyph-name="pencile" d="M862.157 960c42.91-0.008 84.087-17.063 114.43-47.405 30.342-30.352 47.409-71.535 47.404-114.452-0.005-42.918-17.079-84.083-47.428-114.428l-103-103c-0.87-1.297-1.855-2.545-3.001-3.691-1.141-1.141-2.399-2.109-3.689-2.977l-541.167-541.284c-14.126-14.078-31.493-24.481-50.571-30.286l-212.334-64.383c-8.424-2.531-17.397-2.736-25.929-0.595-8.532 2.148-16.344 6.571-22.571 12.785-6.221 6.215-10.65 14.002-12.81 22.526-2.158 8.528-1.971 17.498 0.548 25.927l0.024 0.119 64.429 212.263c5.858 19.102 16.327 36.486 30.476 50.595l541.049 541.19c0.866 1.287 1.885 2.505 3.023 3.643 1.131 1.132 2.338 2.138 3.618 3l103.073 103.071 5.808 5.524c29.689 26.873 68.386 41.859 108.62 41.857z" />
<glyph unicode="&#xe91e;" glyph-name="camera" horiz-adv-x="1654" d="M1102.769 960c20.89 0 40.921-8.305 55.694-23.077 14.769-14.772 23.075-34.802 23.075-55.692v-866.462c0-20.89-8.306-40.921-23.075-55.694-14.773-14.769-34.804-23.075-55.694-23.075h-1024c-20.891 0-40.92 8.306-55.692 23.075-14.772 14.773-23.077 34.804-23.077 55.694v866.462c0 20.891 8.305 40.92 23.077 55.692s34.802 23.077 55.692 23.077h1024zM1566.425 835c14.738 1.684 29.664-0.851 43.036-7.269 13.375-6.42 24.674-16.484 32.579-29.038s12.107-27.088 12.115-41.923v-617.537c-0.008-14.836-4.21-29.369-12.115-41.925s-19.204-22.619-32.579-29.038c-13.371-6.42-28.298-8.952-43.036-7.27-14.734 1.69-28.696 7.503-40.271 16.77l-265.846 212.693v315.077l265.846 212.692c11.575 9.266 25.537 15.083 40.271 16.769z" />
<glyph unicode="&#xe91f;" glyph-name="shield-plus" d="M827.218 960c5.071-0.002 10.106-0.992 14.781-2.957s8.931-4.857 12.479-8.478c41.263-41 75.317-88.658 100.784-140.956 37.167-75.942 67.954-182.514 67.954-329.129-0.004-175.683-85.486-296.355-190.041-376.872-103.335-79.676-226.295-121.019-307.351-141.779-6.18-1.527-12.76-1.527-18.868 0-80.902 20.68-206.077 62.028-311.782 141.477-106.848 80.286-195.167 201.033-195.174 377.175 0 146.615 30.864 253.188 67.957 329.129 37.242 76.009 80.131 119.738 100.739 140.956 3.561 3.633 7.83 6.512 12.522 8.478 4.684 1.961 9.705 2.963 14.783 2.957h631.219zM473.435 708.608c-15.173-0.005-29.748-6.009-40.479-16.739s-16.734-25.304-16.739-40.478v-76.479h-76.348c-15.175-0.004-29.748-6.052-40.478-16.782-10.729-10.734-16.739-25.301-16.739-40.478v-76.304c0-15.173 6.015-29.745 16.739-40.479 10.731-10.73 25.303-16.776 40.478-16.78h76.348v-76.177c0.001-15.177 6.010-29.745 16.739-40.479 10.731-10.73 25.301-16.731 40.479-16.736h76.346c15.182 0 29.745 6.002 40.479 16.736s16.74 25.302 16.74 40.479v76.177h76.346c15.182 0 29.745 6.046 40.479 16.78 10.73 10.734 16.74 25.302 16.74 40.479v76.304c0 15.18-6.006 29.744-16.74 40.478s-25.297 16.781-40.479 16.782h-76.346v76.479c-0.004 15.174-6.010 29.748-16.74 40.478-10.734 10.729-25.302 16.738-40.479 16.739h-76.346z" />
<glyph unicode="&#xe920;" glyph-name="health-benefit" horiz-adv-x="1946" d="M1796.874 959.8c4.014-0.23 8.028-0.704 11.991-1.5 1.495-0.298 2.949-0.726 4.403-1.1 1.065-0.273 2.15-0.485 3.205-0.8 1.597-0.478 3.133-1.132 4.7-1.7 1.157-0.421 2.355-0.728 3.492-1.2 1.649-0.681 3.215-1.521 4.803-2.3 0.727-0.353 1.485-0.625 2.202-1l1.004-0.5c1.198-0.65 2.335-1.395 3.492-2.1 1.116-0.674 2.222-1.37 3.308-2.1 13.844-9.292 24.812-22.514 31.293-38.1 0.481-1.141 0.778-2.343 1.208-3.5 0.563-1.562 1.219-3.097 1.7-4.7 1.126-3.777 1.894-7.627 2.499-11.5 0.655-4.262 1.096-8.654 1.096-13.1v-512c-0.020-47.106-38.185-85.3-85.299-85.3-47.094 0.024-85.268 38.209-85.299 85.3v306.099l-579.697-579.8c-33.321-33.271-87.388-33.289-120.703 0l-366.401 366.401-494.3-494.401c-33.319-33.235-87.299-33.266-120.6 0-33.309 33.31-33.278 87.372 0 120.701l554.6 554.7c33.32 33.319 87.375 33.308 120.701 0l366.297-366.3 519.404 519.3h-306.002c-47.094 0.024-85.268 38.209-85.299 85.3 0 47.114 38.195 85.376 85.299 85.4h512c1.628 0 3.297-0.11 4.905-0.2z" />
<glyph unicode="&#xe921;" glyph-name="caution" horiz-adv-x="1144" d="M548.589 256.53c24.937-0.018 45.176-20.233 45.176-45.176-0.016-24.925-20.249-45.164-45.176-45.176h-0.529c-24.94 0-45.161 20.239-45.176 45.176 0 24.949 20.226 45.176 45.176 45.176h0.529zM548.059 658.118c24.95 0 45.176-20.226 45.176-45.176v-200.765c0-24.95-20.226-45.176-45.176-45.176s-45.176 20.226-45.176 45.176v200.765c0 24.95 20.226 45.176 45.176 45.176zM547.53 960c25.75 0 51.045-6.918 73.291-19.882 22.185-12.932 40.55-31.502 53.236-53.823l401.474-702.589c12.758-22.112 19.522-47.237 19.528-72.764-0.006-25.516-6.722-50.598-19.468-72.704-12.758-22.106-31.093-40.514-53.182-53.296-22.1-12.782-47.224-19.564-72.764-19.589h-803.174c-25.512-0.157-50.637 6.397-72.824 18.998-22.304 12.68-40.892 31.081-53.823 53.236-12.92 22.155-19.759 47.357-19.824 72.999-0.057 25.66 6.705 50.899 19.529 73.12l401.47 702.589c12.686 22.32 31.056 40.89 53.235 53.823 22.246 12.963 47.547 19.881 73.294 19.882zM547.53 869.588c-9.761-0.001-19.331-2.617-27.765-7.529-8.431-4.916-15.422-11.98-20.235-20.47l-0.117-0.117-401.647-702.942c-4.856-8.421-7.429-17.986-7.411-27.708 0.027-9.722 2.632-19.305 7.529-27.702 4.904-8.403 11.956-15.372 20.411-20.179 8.458-4.801 18.038-7.319 27.765-7.234l810.706 0.47c7.156 0.952 14.119 3.307 20.414 6.945 8.373 4.843 15.336 11.854 20.173 20.233 4.831 8.379 7.349 17.914 7.355 27.588 0 9.674-2.524 19.209-7.355 27.588l-0.114 0.175-401.649 702.884c-4.809 8.487-11.811 15.554-20.235 20.47-8.439 4.918-18.056 7.529-27.823 7.529z" />
<glyph unicode="&#xe922;" glyph-name="bacteria-conn" d="M0 960h1024v-1024h-1024v1024zM1024 960h-1024v-1024h1024v1024zM214.421 817.408c0.885 2.659 2.285 5.118 4.12 7.235s4.070 3.854 6.576 5.108c2.506 1.254 5.235 2.002 8.030 2.201s5.603-0.154 8.261-1.040c23.125-7.701 75.136-33.6 104.939-79.744 21.995 6.912 49.813-1.643 69.376-23.424 22.443-24.96 26.453-58.88 10.88-80.256 2.389-3.541 5.035-8.171 7.637-14.187 5.483-12.629 10.731-31.189 13.077-57.941 22.507-1.856 46.464-14.656 64.149-36.629 19.947-24.789 26.816-54.912 20.395-78.933 8.128-5.76 19.776-12.907 33.131-19.115 17.493-8.128 36.203-13.867 53.013-14.016 14.443 10.069 30.464 15.573 45.845 15.573 4.117 28.224 12.821 48.299 22.613 62.421 3.059 4.365 6.093 8.119 9.109 11.264l-0.192 0.704-0.213 0.853c-18.278 2.748-36.015 8.341-52.565 16.576-5.193 2.55-10.27 5.333-15.211 8.341-1.596-1.146-3.273-2.179-5.013-3.093-26.048-13.419-62.485 5.419-81.365 42.091-18.133 35.2-13.504 74.027 9.963 88.939l-1.216 5.973c-1.527 7.309-2.897 14.649-4.117 22.016-26.453 10.453-41.664 42.816-34.603 76.608 7.765 37.12 39.467 61.867 70.784 55.317 31.36-6.549 50.475-41.941 42.709-79.040-4.8-22.933-18.731-41.173-36.075-50.176 0.811-4.693 1.899-10.219 3.115-16.256l0.981-4.8 1.749-8.704c5.845-2.667 11.605-6.315 17.024-10.859l0.277-0.213c3.11 1.409 6.17 2.925 9.173 4.544 6.784 3.52 16 8.747 25.813 15.488 14.891 10.261 29.504 22.891 39.467 37.12 3.029 4.253 5.577 8.64 7.637 13.163-7.253 30.272 19.2 63.445 59.883 74.667 41.301 11.371 81.621-4.267 90.048-34.88 8.448-30.635-18.197-64.704-59.499-76.075-21.888-6.037-43.52-4.48-60.245 2.859-14.613-22.571-35.669-40-53.12-52.011-10.628-7.273-21.717-13.85-33.195-19.691 6.891-15.083 9.664-30.613 8.683-44.459 3.989-2.581 9.131-5.611 15.147-8.576 12.924-6.455 26.807-10.785 41.109-12.821 11.029 18.432 31.659 33.877 57.6 40.747 26.965 7.125 53.547 3.349 72.405-8.256 5.184 4.053 10.901 8.789 16.64 14.016-8.533 13.013-17.152 32.427-17.152 55.296 0 5.658 2.249 11.084 6.246 15.085 4.002 4.001 9.429 6.249 15.087 6.249s11.085-2.248 15.087-6.249c3.998-4 6.246-9.427 6.246-15.085 0-7.68 1.856-14.827 4.352-20.907 3.443 5.561 5.76 10.702 6.955 15.424 0.666 2.735 1.865 5.311 3.529 7.581s3.759 4.187 6.17 5.642c2.411 1.456 5.082 2.42 7.863 2.838 2.786 0.418 5.623 0.281 8.354-0.403s5.295-1.901 7.552-3.582c2.261-1.681 4.16-3.791 5.602-6.211 1.438-2.419 2.381-5.099 2.778-7.885 0.401-2.786 0.243-5.623-0.461-8.349-5.696-22.763-22.4-43.925-37.973-59.861-10.432-10.667-21.547-20.203-31.253-27.733 7.744-33.856-21.035-70.315-65.131-81.984-25.771-6.805-51.157-3.669-69.824 6.72l-1.643-2.261c-6.357-9.173-14.123-25.813-16.683-54.656 23.979-23.723 27.093-68.139 5.397-107.136-17.152-30.784-45.333-50.176-72.555-53.12-0.311-1.293-0.631-2.761-0.96-4.395-1.694-8.265-2.842-16.631-3.435-25.045-0.597-9.557-0.213-18.475 1.557-25.515 0.832-3.264 1.813-5.675 2.837-7.467 19.243 5.547 43.221 3.157 65.643-8.299 17.131-8.747 30.507-21.333 38.891-35.157 1.438-0.085 3.234-0.158 5.397-0.213 6.229-0.085 15.147 0.171 25.6 1.6 21.013 2.859 46.997 10.304 69.568 28.032 2.197 1.788 4.727 3.119 7.441 3.917 2.718 0.802 5.568 1.050 8.38 0.738 2.816-0.311 5.538-1.182 8.013-2.56 2.475-1.374 4.651-3.23 6.4-5.457 1.754-2.227 3.042-4.779 3.793-7.505 0.755-2.731 0.96-5.585 0.597-8.393-0.358-2.807-1.276-5.517-2.692-7.97-1.417-2.449-3.311-4.595-5.564-6.306-11.951-9.357-25.092-17.075-39.083-22.955 10.133-7.125 20.715-13.163 29.995-16.256 2.658-0.883 5.116-2.287 7.236-4.122 2.116-1.835 3.853-4.070 5.103-6.575 1.254-2.505 2.005-5.235 2.202-8.030 0.201-2.795-0.154-5.602-1.037-8.26s-2.287-5.116-4.122-7.236c-1.835-2.116-4.070-3.853-6.575-5.103-2.505-1.254-5.235-2.005-8.030-2.202-2.795-0.201-5.602 0.154-8.26 1.037-15.744 5.248-31.104 14.656-43.328 23.467-8.363 6.012-16.358 12.523-23.936 19.499l-0.363-0.043c-10.795-1.472-20.331-1.92-27.819-1.984-0.794-4.015-2.159-7.893-4.053-11.52-15.040-29.461-59.008-37.12-98.219-17.067-38.549 19.669-58.133 58.752-44.501 88.043-5.158 7.215-8.862 15.369-10.901 24-3.243 12.971-3.499 26.731-2.773 38.507 0.841 12.565 2.714 25.037 5.611 37.291-13.696 9.899-22.336 25.493-25.408 43.541-14.891-1.22-29.47-4.958-43.115-11.051-8.418-3.648-16.282-8.461-23.36-14.293 3.733-28.437-19.84-58.496-56.149-69.589-8.388-2.59-17.101-3.989-25.877-4.16-13.269-28.608-35.989-50.603-54.549-65.173l-1.195-0.939-0.64-0.491c7.040-11.008 10.112-23.403 7.936-35.797-5.696-32.341-45.056-52.459-87.893-44.907-42.837 7.531-72.96 39.893-67.243 72.213 5.696 32.341 45.035 52.437 87.893 44.907 9.259-1.643 17.92-4.437 25.771-8.149 2.887 2.035 5.888 4.275 9.003 6.72 14.421 11.307 29.184 25.941 38.763 42.88-4.757 3.119-8.985 6.98-12.523 11.435-21.227-1.557-45.739-0.341-68.395 1.792-14.752 1.412-29.463 3.221-44.117 5.419-2.853-5.308-6.854-9.916-11.712-13.483-23.979-17.472-63.083-4.608-87.381 28.736-14.613 20.053-20.523 43.008-17.664 61.867l-0.256 0.64c-1.587 3.985-3.345 7.898-5.269 11.733-4.843 9.664-11.627 20.736-20.011 29.12-2.037 1.967-3.663 4.322-4.781 6.925s-1.707 5.402-1.731 8.235c-0.024 2.833 0.515 5.641 1.588 8.265 1.073 2.62 2.657 5.005 4.66 7.006s4.385 3.588 7.007 4.659c2.622 1.075 5.431 1.613 8.264 1.587s5.632-0.61 8.235-1.728c2.603-1.122 4.957-2.743 6.925-4.783 11.221-11.221 19.627-24.427 25.472-35.349 1.394 0.384 2.816 0.695 4.267 0.939 0.711 4.254 1.65 8.606 2.816 13.056 3.627 13.653 10.24 30.293 22.613 42.688 4.023 3.887 9.412 6.037 15.006 5.986 5.594-0.047 10.944-2.291 14.9-6.246s6.199-9.306 6.248-14.899c0.049-5.594-2.102-10.982-5.988-15.006-4.693-4.693-8.747-12.928-11.52-23.445-1.067-4.011-1.856-8-2.411-11.669 10.411-6.187 20.267-15.104 28.459-26.347 8.363-11.477 13.867-23.893 16.533-35.968 13.397-2.048 28.523-4.011 43.861-5.44 20.672-1.963 40.576-2.837 56.875-2.005 6.4 21.397 26.709 40.896 54.4 49.344 24.064 7.36 48.149 4.693 65.387-5.44 9.348 7.198 19.516 13.265 30.293 18.069 19.938 8.875 41.348 13.99 63.147 15.083 2.492 9.109 6.071 17.882 10.667 26.133-12.762 3.324-25.19 7.821-37.12 13.44-14.289 6.652-27.947 14.579-40.811 23.68-28.843-16.277-70.997-4.139-98.24 29.717-3.512 4.331-6.679 8.934-9.472 13.76-6.070-2.014-12.358-3.302-18.731-3.84-8.52-0.742-17.079-0.913-25.621-0.512-15.997 0.798-31.945 2.377-47.787 4.736-1.485 0.209-2.944 0.572-4.352 1.088-15.509-13.653-39.552-20.651-65.173-16.96-29.675 4.267-53.269 21.696-62.187 43.243-15.37 2.893-30.973 4.369-46.613 4.416-5.658 0-11.084 2.249-15.085 6.246-4.001 4.002-6.249 9.429-6.249 15.087s2.248 11.084 6.249 15.085c4 4.001 9.427 6.249 15.085 6.249 18.987 0 35.968-1.941 49.387-4.245 2.56 4.352 5.739 8.306 9.536 11.861-0.986 1.455-1.911 2.949-2.773 4.48-7.573 13.205-13.483 33.045-13.483 62.571 0 5.658 2.248 11.084 6.249 15.085s9.427 6.249 15.085 6.249c5.658 0 11.084-2.248 15.085-6.249s6.249-9.427 6.249-15.085c0-23.829 4.757-35.989 7.851-41.408 0.878-1.58 1.953-3.043 3.2-4.352 1.365-0.811 2.595-1.749 3.691-2.816 8.107 1.088 16.704 1.067 25.472-0.192 36.693-5.291 64.107-30.699 65.92-59.093 12.040-1.66 24.148-2.778 36.288-3.349 7.488-0.299 14.251-0.213 19.776 0.341 5.909 0.576 8.789 1.536 9.6 1.941l0.299 0.149c-1.6 21.12 5.035 40.725 20.032 53.184l-0.085 0.981c-1.664 27.541-6.571 43.691-10.283 52.267-1.241 2.977-2.816 5.804-4.693 8.427-1.157 1.138-2.181 2.406-3.051 3.776-18.411 0.085-38.336 9.024-53.376 25.771-17.963 19.989-24.107 45.696-17.877 66.133-1.453 1.355-2.709 2.906-3.733 4.608-3.305 5.466-7.051 10.653-11.2 15.509-23.125-18.411-72.747-36.544-151.829-36.544-5.658 0-11.084 2.248-15.085 6.249s-6.249 9.427-6.249 15.085c0 5.658 2.248 11.084 6.249 15.085s9.427 6.249 15.085 6.249c64.32 0 101.845 12.992 118.869 22.955-15.744 10.688-30.997 17.707-40.277 20.8-2.659 0.885-5.118 2.285-7.235 4.12s-3.854 4.070-5.108 6.576c-1.254 2.506-2.002 5.235-2.201 8.030s0.154 5.603 1.040 8.261z" />
<glyph unicode="&#xe923;" glyph-name="dna" horiz-adv-x="723" d="M113.765 960c0-36.485 1.584-69.528 4.471-99.529h446.177c2.883 30.002 4.471 63.044 4.471 99.529h113.764c0-185.147-37.015-306.718-99.647-393.353-60.853-84.178-141.652-128.585-210.883-166.648l-3.353-1.823c-60.171-33.098-111.738-62.088-153.177-106.65h251.471c-20.696 22.257-43.916 40.659-69.471 57.591l4.294 2.295c30.714 16.869 65.944 36.238 101.647 61.058 28.296-22.888 55.451-49.892 79.47-83.116 62.632-86.636 99.647-208.209 99.647-393.355h-113.764c0 36.485-1.588 69.53-4.471 99.527h-446.177c-2.886-29.997-4.471-63.042-4.471-99.527h-113.765c0 185.145 37.019 306.718 99.647 393.355 60.855 84.178 141.649 128.582 210.882 166.646l3.412 1.823c60.168 33.096 111.682 62.088 153.118 106.647h-251.471c20.696-22.257 43.918-40.661 69.471-57.589l-4.235-2.294c-30.718-16.873-65.996-36.234-101.706-61.059-28.291 22.888-55.45 49.891-79.47 83.118-62.628 86.635-99.647 208.206-99.647 393.353h113.765zM159.412 206.234c-10.922-24.172-20.419-52.29-27.882-85.353h419.588c-7.464 33.063-16.965 61.181-27.882 85.353h-363.824zM131.529 775.117c7.464-33.063 16.96-61.18 27.882-85.353h363.824c10.917 24.173 20.425 52.29 27.882 85.353h-419.588z" />
<glyph unicode="&#xe924;" glyph-name="caution-circle" d="M494.526 331.156c24.793-0.011 44.895-20.097 44.895-44.894-0.016-24.781-20.111-44.878-44.895-44.894h-0.474c-24.795 0-44.88 20.103-44.895 44.894 0 24.808 20.090 44.894 44.895 44.894h0.474zM494.053 690.473c24.805 0 44.895-20.090 44.895-44.894v-179.632c-0.014-24.793-20.099-44.949-44.895-44.949s-44.88 20.156-44.895 44.949v179.632c0 24.804 20.090 44.894 44.895 44.894zM494.053 960c272.832-0.014 494.043-221.221 494.054-494.053-0.016-272.826-221.227-494.037-494.054-494.054-272.831 0.011-494.038 221.222-494.053 494.054 0.009 272.834 221.218 494.043 494.053 494.053zM494.053 870.158c-223.226-0.010-404.201-180.985-404.211-404.211 0.015-223.222 180.988-404.2 404.211-404.211 223.216 0.016 404.195 180.995 404.211 404.211-0.011 223.222-180.989 404.196-404.211 404.211z" />
<glyph unicode="&#xe925;" glyph-name="molecule" horiz-adv-x="1069" d="M614.2 933.689c67.967 56.12 171.823 17.557 186.479-69.261 13.655-80.889-59.588-147.614-136.477-131.522l-53.564-128.652c71.711-49.081 89.507-150.738 37.478-221.087l107.565-87.218c101.621 83.189 261.654 40.475 303.523-90.041 44.873-139.936-79.413-276.765-223.219-245.742-135.097 29.157-193.077 186.105-117.609 295.304l-101.176 96.305c-79.605-61.271-193.544-30.284-235.173 55.523l-120.565-52.914c20.060-90.005-59.014-175.563-153.261-158.261-99.798 18.325-142.471 138.374-76.609 215.565 59.376 69.583 167.165 57.673 212.696-15.302l125.652 46c-23.987 123.548 86.91 216.901 200.392 181.651l63.172 119.913c-70.665 37.099-83.287 136.891-19.305 189.739z" />
<glyph unicode="&#xe926;" glyph-name="sand-time" horiz-adv-x="751" d="M91.033 960c0-212.443 124.248-324.737 273.067-442.699 24.412 19.19 48.425 38.885 72.001 59.098-126.886 100.080-214.386 176.423-243.468 292.567h436.168c5.461 28.215 8.366 58.45 8.366 91.033h91.034c0-272.47-175.258-410.163-331.766-533.132l-4.202-3.267c-161.018-126.522-301.2-239.131-301.2-464.869h-91.033c0 248.764 146.123 385.171 290.666 500.634-144.543 115.415-290.666 251.87-290.666 500.634h91.033zM508.867 399.8c117.647-104.219 219.334-233.537 219.334-441.068h-91.034c-0.061 32.495-2.843 62.846-8.366 91.034h-436.168c29.994 119.869 122.264 197.301 255.834 302.199 20.159 15.93 40.421 31.724 60.399 47.834z" />
<glyph unicode="&#xe927;" glyph-name="slash-circle" d="M583.086 57.044c27.76 5.373 54.624-12.773 60-40.53 5.368-27.757-12.773-54.627-40.533-60-63.535-12.295-128.866-12.295-192.4 0-27.743 5.379-45.895 32.249-40.533 60 5.374 27.75 32.246 45.896 60 40.53 50.678-9.803 102.788-9.796 153.466 0zM840.752 227.116c15.865 23.388 47.732 29.512 71.134 13.667 23.402-15.858 29.512-47.732 13.667-71.134-36.407-53.733-82.862-99.99-136.731-136.206-23.463-15.742-55.228-9.503-71.004 13.933-15.763 23.47-9.53 55.296 13.933 71.072 42.967 28.884 79.961 65.802 109.001 108.667zM100.153 242.183c23.467 15.763 55.228 9.53 70.999-13.933 28.884-42.967 65.808-79.961 108.667-109.001 23.399-15.865 29.525-47.732 13.667-71.134-15.856-23.395-47.663-29.498-71.067-13.667-53.739 36.413-99.986 82.862-136.2 136.731-15.768 23.47-9.532 55.228 13.934 71.004zM9.22 549.847c5.378 27.737 32.259 45.878 60 40.533 27.756-5.372 45.895-32.244 40.533-60-9.805-50.674-9.801-102.792 0-153.466 5.373-27.762-12.771-54.628-40.533-60-27.75-5.352-54.629 12.782-60 40.533-12.291 63.533-12.295 128.868 0 192.4zM943.486 590.38c27.75 5.362 54.62-12.79 60-40.533 12.295-63.534 12.295-128.865 0-192.4-5.373-27.76-32.242-45.902-60-40.533-27.757 5.376-45.903 32.24-40.53 60 9.796 50.678 9.803 102.788 0 153.466-5.366 27.754 12.78 54.626 40.53 60zM719.217 859.18c15.858 23.394 47.732 29.505 71.134 13.666 53.74-36.409 99.99-82.867 136.206-136.733 15.756-23.466 9.523-55.296-13.933-71.066-23.463-15.763-55.296-9.518-71.072 13.933-28.884 42.97-65.795 80.022-108.667 109.067-23.381 15.868-29.519 47.733-13.667 71.133zM223.887 873.781c23.467 15.774 55.291 9.532 71.066-13.934 15.74-23.455 9.5-55.226-13.933-70.999-42.968-28.886-80.022-65.806-109.067-108.667-15.865-23.395-47.73-29.524-71.133-13.667-23.375 15.858-29.486 47.67-13.666 71.067 36.41 53.736 82.864 99.987 136.733 136.2zM410.153 950.78c63.532 12.295 128.867 12.291 192.4 0 27.751-5.371 45.885-32.25 40.533-60-5.373-27.762-32.238-45.906-60-40.533-50.674 9.801-102.793 9.805-153.466 0-27.756-5.362-54.628 12.777-60 40.533-5.345 27.741 12.796 54.622 40.533 60z" />
<glyph unicode="&#xe928;" glyph-name="target" d="M494.105 600.632c74.393-0.024 134.738-60.338 134.738-134.737-0.027-74.376-60.362-134.712-134.738-134.738-74.398 0-134.713 60.346-134.737 134.738 0 74.413 60.324 134.737 134.737 134.737zM494.105 510.842c-24.805 0-44.948-20.143-44.948-44.948 0.024-24.784 20.158-44.896 44.948-44.896 24.769 0.027 44.869 20.126 44.896 44.896 0 24.79-20.112 44.924-44.896 44.948zM494.053 780.316c173.633 0 314.369-140.738 314.369-314.369 0-173.633-140.735-314.369-314.369-314.369-173.631 0-314.369 140.735-314.369 314.369 0 173.631 140.738 314.369 314.369 314.369zM494.053 690.526c-124.021 0-224.579-100.557-224.579-224.579s100.557-224.58 224.579-224.58c124.023 0 224.58 100.557 224.58 224.58 0 124.021-100.557 224.579-224.58 224.579zM494.053 960c272.832-0.014 494.043-221.221 494.054-494.053-0.016-272.826-221.227-494.037-494.054-494.054-272.831 0.011-494.038 221.222-494.053 494.054 0.009 272.834 221.218 494.043 494.053 494.053zM494.053 870.158c-223.226-0.010-404.201-180.985-404.211-404.211 0.015-223.222 180.988-404.2 404.211-404.211 223.216 0.016 404.195 180.995 404.211 404.211-0.011 223.222-180.989 404.196-404.211 404.211z" />
<glyph unicode="&#xe929;" glyph-name="empty-doc" horiz-adv-x="910" d="M401.055 960c84.759 0 152.065 0.024 204.669-7.056 53.658-7.224 97.547-22.475 132.221-57.111 34.691-34.661 50-78.557 57.219-132.222 7.077-52.604 7.003-119.916 7.003-204.666v-45.667c0-20.422-16.577-37-37.001-37s-37.001 16.578-37.001 37v45.667c0 86.836-0.074 148.249-6.332 194.777-6.116 45.471-17.522 71.149-36.17 89.778-18.654 18.636-44.328 30.047-89.776 36.167-46.527 6.264-107.983 6.333-194.833 6.333h-8.5v-8.556c0-63.286 0.071-114.509-5.333-154.722-4.856-36.109-14.596-67.611-35.722-93.666l-9.777-10.833c-27.997-28.021-63.228-39.95-104.5-45.5-40.215-5.406-91.43-5.333-154.722-5.333h-8.5v-190.779c0-86.716 0.040-148.082 6.278-194.554 6.096-45.392 17.478-71.037 36.056-89.668l0.278-0.279 7.334-6.61c18.011-14.7 42.611-24.053 82.334-29.389 46.472-6.235 107.839-6.332 194.555-6.332 20.412-0.011 36.944-16.583 36.944-37.001-0.007-20.406-16.538-36.932-36.944-36.944-84.63 0-151.854-0.108-204.389 6.946-50.246 6.741-91.929 20.531-125.5 50.722l-6.611 6.275-0.333 0.336c-34.567 34.657-49.805 78.524-57 132.107-7.051 52.537-7 119.762-7 204.39v228.445c0 9.828 3.929 19.284 10.889 26.222l317.056 316.056c4.271 4.845 9.737 8.525 16 10.611 0.859 0.296 1.731 0.545 2.611 0.778 0.791 0.199 1.578 0.408 2.389 0.556 2.294 0.446 4.631 0.722 7 0.722h45.111zM125.778 641.444c43.005 0.218 75.568 1.054 101.611 4.556 33.071 4.448 50.042 12.535 62 24.5l0.056 0.056c11.961 11.957 20.053 28.934 24.5 62 3.484 25.918 4.332 58.301 4.556 101l-192.722-192.111zM683.998 412.944c6.468-0.977 12.772-2.897 18.671-5.722l8.556-4.944 7.72-6.111c7.219-6.666 12.897-14.903 16.555-24.113l1.667-4.221 0.057-0.108c9.813-24.866 24.65-47.44 43.554-66.332 18.904-18.898 41.466-33.752 66.332-43.56h0.114l4.221-1.718 8.886-4.278c5.666-3.3 10.78-7.47 15.223-12.282l6.167-7.72 4.892-8.499c4.255-8.869 6.497-18.637 6.497-28.558 0-13.21-3.977-26.123-11.389-37.052-5.564-8.203-12.897-15.053-21.39-20.002l-8.886-4.278-4.221-1.724h-0.114c-24.86-9.808-47.428-24.656-66.332-43.554-18.904-18.904-33.741-41.518-43.554-66.389l-0.057-0.108-1.667-4.227c-4.881-12.271-13.352-22.801-24.274-30.219-10.934-7.424-23.842-11.383-37.057-11.389-13.227 0-26.175 3.959-37.114 11.389-10.889 7.396-19.337 17.886-24.218 30.111l-1.667 4.164-0.114 0.222c-9.808 24.866-24.599 47.491-43.5 66.389-18.905 18.904-41.519 33.746-66.389 43.56l-0.111 0.051-4.222 1.667c-12.281 4.881-22.799 13.346-30.222 24.28-5.565 8.198-9.201 17.505-10.667 27.221l-0.778 9.836 0.778 9.83c1.465 9.722 5.097 19.075 10.667 27.278l6.111 7.72c6.67 7.214 14.903 12.902 24.111 16.56l4.222 1.661h0.111c24.874 9.813 47.482 24.65 66.389 43.56 18.901 18.904 33.692 41.518 43.5 66.389l0.057 0.108 1.667 4.221c4.875 12.277 13.352 22.803 24.274 30.224l8.556 4.944c8.869 4.248 18.642 6.444 28.558 6.444l9.83-0.722zM674.111 327.225c-13.306-29.030-31.642-55.529-54.278-78.171-22.636-22.636-49.135-40.966-78.166-54.278 29.043-13.306 55.525-31.744 78.166-54.386 22.613-22.613 40.977-49.061 54.278-78.057 13.306 29.019 31.71 55.478 54.335 78.114 22.625 22.619 49.101 41.023 78.108 54.329-28.996 13.301-55.433 31.676-78.052 54.278-22.647 22.642-41.079 49.129-54.391 78.171z" />
<glyph unicode="&#xe92a;" glyph-name="multiple-bacteria" horiz-adv-x="1138" d="M422.306 960c89.217 0 175.079-24.091 241.946-68.944 66.071-44.329 124.547-118.030 124.553-214.778 0-96.754-58.482-170.444-124.553-214.778-60.109-40.319-135.551-63.876-215.002-68.222 46.355-54.362 51.247-123.346 42.389-176.224-9.536-56.821-36.819-112.924-75.944-160.444-41.075-49.874-94.041-88.895-151.278-107.998-55.467-18.512-133.324-22.75-196.5 29.941-63.162 52.69-73.437 130.441-65.667 188.723 8.027 60.149 36.202 119.842 77.278 169.722 26.671 32.387 57.845 59.558 91.333 79.89 6.815 4.136 13.81 8.015 20.889 11.612 7.869 3.992 16.391 7.836 25.388 11.333-12.784 6.558-25.074 13.818-36.778 21.666-66.071 44.335-124.555 118.025-124.556 214.778 0.009 96.748 58.485 170.449 124.556 214.778 66.862 44.856 152.728 68.943 241.944 68.944zM856.030 448.5c59.42-2.651 118.295-24.855 167.111-60.387 31.636-23.040 58.027-50.898 77.5-81.556 3.954-6.229 7.646-12.646 11.054-19.166 30.202-57.856 44.368-144.845-15.28-217.168-4.597-5.575-9.535-10.854-14.717-15.832-50.648-48.629-118.022-60.922-173.227-56.616-56.161 4.386-111.514 25.941-157.998 59.779-48.811 35.538-86.38 83.553-103.947 136.943-17.374 52.861-17.556 122.533 30.612 180.946 48.196 58.417 120.070 75.678 178.893 73.056zM355.361 327.612c-27.592 23-70.219 21.214-112.778-0.387-4.478-2.276-8.984-4.801-13.445-7.504-22.068-13.397-43.728-32.028-62.777-55.165-59.49-72.243-71.349-161.178-26.5-198.61 44.87-37.427 129.497-9.188 189 63.056 56.509 68.631 70.069 152.32 32.833 192.609-1.958 2.116-4.094 4.13-6.333 6.002zM258.861 297.887c25.869 5.791 53.635-0.609 69.945-23.945 14.232-20.383 14.414-46.467 9.111-68.944-5.529-23.415-17.812-47.127-33.944-67.163-15.972-19.831-36.548-36.983-59.111-46.171-22.568-9.182-51.54-11.503-74.056 6.502-21.187 16.953-25.65 43.429-23.333 65.832l69.333-4.5c-0.363-3.504-0.262-6.224 0-8.112 0.638 0.205 1.37 0.455 2.166 0.779 8.106 3.3 19.418 11.497 30.111 24.781 10.52 13.073 17.866 27.864 20.889 40.664 1.484 6.298 1.718 11.218 1.389 14.609-0.032 0.324-0.072 0.671-0.111 0.944-2.819-0.899-6.872-2.708-11.778-6.053l-39.556 53.168c11.639 7.942 24.871 14.455 38.944 17.607zM951.086 300.777c-65.308 47.536-147.046 51.2-182.556 8.169-35.504-43.054-11.355-116.503 53.942-164.056 62.049-45.17 138.911-50.688 176.89-14.222 1.985 1.906 3.903 3.92 5.666 6.053 21.823 26.476 21.14 64.472 2.167 100.836-1.997 3.823-4.215 7.669-6.61 11.446-11.867 18.671-28.598 36.551-49.499 51.775zM840.084 298.223c11.713 2.662 23.979 2.486 35.556 0.666l-11.054-54.221c-4.875 0.762-8.567 0.666-11.002 0.33l0.279-0.722c0.95-2.674 2.873-6.286 6.224-10.496 6.804-8.573 17.55-17.135 30.106-23.222 12.754-6.172 24.115-8.249 31.391-7.834 0.728 0.046 1.382 0.085 1.946 0.165-0.472 1.519-1.32 3.601-2.833 6.11l50.608 28.223c9.665-16.043 15.633-37.581 5.666-57.941-10.593-21.623-33.189-30.282-53.441-31.448-20.252-1.155-41.842 4.392-60.888 13.614-19.246 9.318-36.892 22.835-49.334 38.497-11.935 15.036-21.066 34.731-17.556 55.171 4.039 23.427 22.784 38.212 44.334 43.11zM892.581 711.111c29.929 10.548 64.922 10.848 98.56 1 33.627-9.853 62.982-28.997 82.608-54.056 19.57-24.984 31.437-59.088 21.225-94.5-10.246-35.417-38.446-57.805-68.278-68.333-29.929-10.555-64.916-10.9-98.56-1.056-33.644 9.859-63.033 29.037-82.665 54.112-19.553 24.988-31.454 59.088-21.22 94.5 10.246 35.417 38.491 57.81 68.329 68.333zM422.306 846.5c-140.116-0.002-253.703-76.217-253.722-170.222 0.001-94.015 113.596-170.221 253.722-170.222 140.129 0 253.722 76.206 253.722 170.222-0.017 94.006-113.604 170.222-253.722 170.222zM346.75 719.833c-13.548-6.199-23.149-13.432-29.166-20.167-9.405-10.541-8.932-17.84-6.611-23.5 3.549-8.632 15.509-22.216 41.889-32.778 25.626-10.254 58.139-14.705 90.5-11.444 32.631 3.289 59.121 13.757 75.278 26.389 15.836 12.39 16.864 22.253 16.278 26.611-0.794 5.791-6.465 18.136-28.167 30.333l41.222 74.333c35.492-19.943 65.176-51.736 70.78-93.278 5.774-42.953-16.259-80.186-48.282-105.222-31.722-24.798-74.494-39.379-118.665-43.833-44.441-4.482-90.705 1.215-130.166 17-38.695 15.486-73.445 41.913-88.833 79.333-16.597 40.387-5.913 81.865 21.889 113 15.424 17.261 35.363 30.739 57.056 40.667l35-77.445zM967.47 630.389c-18.66 5.46-35.465 4.434-46.939 0.389-11.531-4.069-14.416-9.578-15.058-11.778-0.631-2.197-1.115-8.393 6.446-18.055 7.532-9.612 21.168-19.533 39.834-25 18.671-5.468 35.465-4.438 46.945-0.389 11.571 4.082 14.421 9.594 15.053 11.778 0.626 2.221 1.092 8.374-6.446 18-7.526 9.611-21.168 19.59-39.834 25.056z" />
<glyph unicode="&#xe92b;" glyph-name="bacterial-circle" d="M505.704 960c279.275-0.003 505.666-226.427 505.666-505.704-0.004-279.275-226.391-505.663-505.666-505.666-279.277 0-505.701 226.391-505.704 505.666 0 279.28 226.425 505.704 505.704 505.704zM445.52 304.295c-45.109 89.733-117.835 144.278-162.445 121.852s-44.22-113.338 0.889-203.074c45.108-89.729 117.832-144.27 162.444-121.852 44.612 22.426 44.222 113.342-0.887 203.074zM719.076 382.221c-83.096 50.172-170.682 57.382-195.63 16.077-24.944-41.313 22.198-115.496 105.294-165.668 83.099-50.176 170.686-57.348 195.63-16.039 24.94 41.313-22.202 115.454-105.294 165.63zM744.816 681.778c-41.612 88.952-111.187 144.279-155.409 123.593-44.222-20.694-46.349-109.563-4.741-198.518 41.612-88.958 111.222-144.281 155.443-123.592 44.214 20.7 46.311 109.573 4.707 198.518zM451.815 739.704c-29.84 38.607-117.005 21.24-194.667-38.778s-116.429-139.983-86.592-178.591c29.845-38.605 117.006-21.239 194.667 38.775 77.662 60.019 116.433 139.983 86.593 178.594z" />
<glyph unicode="&#xe92c;" glyph-name="icon-right" horiz-adv-x="956" d="M68.267 525.533c-37.703 0-68.267-30.564-68.267-68.267s30.564-68.267 68.267-68.267v136.533zM935.738 408.995c26.658 26.659 26.658 69.883 0 96.543l-434.446 434.446c-26.66 26.66-69.884 26.66-96.544 0s-26.659-69.884 0-96.543l386.176-386.175-386.176-386.174c-26.659-26.658-26.659-69.885 0-96.543 26.66-26.665 69.884-26.665 96.544 0l434.446 434.445zM68.267 457.267v-68.267h819.2v136.533h-819.2v-68.267z" />
<glyph unicode="&#xe92d;" glyph-name="icon-left" horiz-adv-x="956" d="M887.467 389c37.704 0 68.267 30.564 68.267 68.267s-30.563 68.267-68.267 68.267v-136.533zM19.995 505.539c-26.66-26.659-26.66-69.884 0-96.543l434.446-434.445c26.66-26.658 69.884-26.658 96.544 0s26.659 69.885 0 96.543l-386.175 386.174 386.175 386.175c26.659 26.659 26.659 69.884 0 96.543s-69.884 26.66-96.543 0l-434.447-434.446zM887.467 457.267v68.267h-819.2v-136.533h819.2v68.267z" />
<glyph unicode="&#xe92e;" glyph-name="branch" horiz-adv-x="1081" d="M373.376 960v-551.248l-83.206 57.452 2.606 0.287-27.462 249.082-56.548-6.235 22.309-202.331-188.212 129.957-42.864-171.455 125.721-99.248-115.338-29.059 13.898-55.165 157.777 39.751 180.757-142.694c6.61-5.052 10.561-12.993 10.561-21.498v-221.596h284.444v423.438c0 9.535 5.404 18.731 14.774 23.592l146.517 76.029 215.984-52.537 13.449 55.279-154.687 37.626 170.095 92.396-64.521 150.548-215.498-102.312 29.665 134.699-55.555 12.237-39.256-178.23-60.968-30.76v381.995h-284.444zM522.052 878.947c8.289-13.345 4.19-30.882-9.156-39.171s-30.879-4.187-39.171 9.157c-8.289 13.345-4.187 30.882 9.156 39.17 13.346 8.288 30.885 4.188 39.171-9.157zM569.785 725.999c13.346 8.289 17.445 25.825 9.156 39.171-8.286 13.346-25.825 17.445-39.171 9.156-13.343-8.289-17.445-25.825-9.156-39.171 8.292-13.343 25.825-17.445 39.171-9.156zM512.896 469.999c13.346 8.289 17.445 25.825 9.156 39.171-8.286 13.346-25.825 17.445-39.171 9.156-13.343-8.289-17.445-25.825-9.156-39.171 8.292-13.343 25.825-17.445 39.171-9.156zM550.497 310.059c8.289-13.346 4.19-30.882-9.156-39.171s-30.879-4.187-39.171 9.156c-8.289 13.346-4.187 30.882 9.156 39.171 13.346 8.289 30.885 4.19 39.171-9.156zM512.896 14.888c13.346 8.289 17.445 25.825 9.156 39.171-8.286 13.346-25.825 17.445-39.171 9.156-13.343-8.289-17.445-25.825-9.156-39.171 8.292-13.343 25.825-17.445 39.171-9.156z" />
<glyph unicode="&#xe92f;" glyph-name="pill" d="M946.924 885.125c-49.275 47.942-116.105 74.875-185.788 74.875-69.687 0-136.516-26.933-185.791-74.875l-500.732-487.151c-48.244-48.148-75.048-112.852-74.607-180.094 0.441-67.239 28.093-131.604 76.965-179.149s115.028-74.441 184.137-74.861c69.109-0.42 135.605 25.668 185.084 72.615l500.784 487.151c49.19 47.978 76.81 112.985 76.803 180.755-0.010 67.77-27.648 132.768-76.855 180.734zM390.397 90.774c-34.471-33.546-81.225-52.395-129.977-52.398s-95.51 18.835-129.986 52.374c-34.476 33.536-53.848 79.025-53.852 126.461s19.358 92.928 53.828 126.474l222.445 216.433 259.987-252.914-222.444-216.429zM891.129 577.925l-222.543-216.433-259.888 252.911 222.491 216.433c34.608 32.894 81.145 51.186 129.526 50.911 48.377-0.275 94.693-19.096 128.901-52.38 34.212-33.284 53.555-78.349 53.835-125.42 0.283-47.071-18.517-92.35-52.323-126.023zM815.008 679.973c3.669-3.566 6.577-7.802 8.564-12.463s3.011-9.658 3.011-14.705c0-5.046-1.024-10.043-3.011-14.705s-4.895-8.897-8.564-12.463l-118.402-115.2c-3.666-3.564-8.018-6.39-12.81-8.318-4.789-1.929-9.923-2.922-15.104-2.918-5.185 0.003-10.315 0.997-15.104 2.932-4.789 1.932-9.137 4.762-12.803 8.329-3.663 3.567-6.567 7.803-8.55 12.462-1.98 4.663-3 9.656-2.997 14.698 0.003 5.045 1.024 10.039 3.011 14.698s4.895 8.888 8.564 12.455l118.398 115.199c7.4 7.196 17.435 11.238 27.897 11.238 10.465 0 20.497-4.042 27.901-11.238z" />
<glyph unicode="&#xe930;" glyph-name="bacteria-beam" d="M275.823 549.186c8.331-8.331 21.839-8.331 30.17 0s8.331 21.839 0 30.17l-128.001 128c-8.331 8.331-21.839 8.331-30.17 0s-8.331-21.839 0-30.17l128.001-128zM91.79 668.77c-8.445-8.215-8.63-21.722-0.413-30.167l164.788-169.365h298.726c2.195 22.537 20.166 40.45 42.729 42.551-0.732 0.077-1.474 0.115-2.225 0.115h-321.214l-152.223 156.452c-8.216 8.446-21.723 8.629-30.167 0.414zM598.052 384.164c-22.735 1.909-40.907 19.866-43.151 42.502h-298.737l-164.788-169.365c-8.216-8.444-8.031-21.95 0.413-30.167 8.444-8.215 21.951-8.030 30.167 0.414l152.223 156.452h321.214c0.9 0 1.788 0.058 2.658 0.164zM305.993 316.559c8.331 8.333 8.331 21.839 0 30.172-8.331 8.331-21.839 8.331-30.17 0l-128.001-128c-8.331-8.333-8.331-21.839 0-30.172 8.331-8.331 21.839-8.331 30.17 0l128.001 128zM659.117 426.667h-20.094c-2.718-8.655-10.803-14.933-20.356-14.933-11.782 0-21.333 9.551-21.333 21.333v29.867c0 11.782 9.551 21.333 21.333 21.333 9.553 0 17.638-6.278 20.356-14.933h20.094c2.878 14.782 8.693 28.514 16.813 40.567l-12.465 12.463c-8.341-8.179-21.737-8.128-30.016 0.151-8.331 8.331-8.331 21.839 0 30.17l29.867 29.867c8.331 8.333 21.839 8.333 30.17 0 8.282-8.279 8.331-21.675 0.151-30.018l12.463-12.463c12.051 8.119 25.786 13.935 40.567 16.815v20.092c-8.655 2.718-14.933 10.803-14.933 20.356 0 11.782 9.551 21.333 21.333 21.333h29.867c11.782 0 21.333-9.551 21.333-21.333 0-9.553-6.278-17.638-14.933-20.356v-20.092c14.782-2.88 28.516-8.695 40.567-16.815l12.463 12.463c-8.179 8.343-8.13 21.739 0.151 30.018 8.331 8.333 21.839 8.333 30.17 0l29.867-29.867c8.331-8.331 8.331-21.839 0-30.17-8.279-8.279-21.675-8.331-30.016-0.151l-12.465-12.463c8.119-12.053 13.935-25.786 16.815-40.567h20.092c2.718 8.655 10.803 14.933 20.356 14.933 11.782 0 21.333-9.551 21.333-21.333v-29.867c0-11.782-9.551-21.333-21.333-21.333-9.553 0-17.638 6.278-20.356 14.933h-20.094c-2.161-11.102-5.98-21.611-11.185-31.26l21.771-21.771c8.341 8.179 21.737 8.128 30.016-0.151 8.331-8.333 8.331-21.839 0-30.172l-29.867-29.867c-8.331-8.331-21.839-8.331-30.17 0-8.282 8.282-8.331 21.677-0.149 30.020l-18.844 18.842c-13.935-11.469-30.716-19.605-49.122-23.191v-20.094c8.655-2.718 14.933-10.803 14.933-20.356 0-11.782-9.551-21.333-21.333-21.333h-29.867c-11.782 0-21.333 9.551-21.333 21.333 0 9.553 6.278 17.638 14.933 20.356v20.094c-14.782 2.88-28.516 8.693-40.567 16.813l-12.465-12.463c8.181-8.343 8.132-21.739-0.149-30.020-8.331-8.331-21.839-8.331-30.17 0l-29.867 29.867c-8.331 8.333-8.331 21.839 0 30.172 8.279 8.279 21.675 8.331 30.016 0.151l12.465 12.463c-8.119 12.053-13.933 25.786-16.813 40.567z" />
<glyph unicode="&#xe931;" glyph-name="simple-pill" d="M779.379 261.687l150.754 152.179c30.34 30.34 53.572 64.947 69.687 103.821 16.119 38.875 24.179 79.646 24.179 122.313 0 89.126-31.044 164.75-93.129 226.873s-137.707 93.165-226.871 93.127c-42.667 0-83.439-8.059-122.313-24.178s-73.481-39.348-103.821-69.689l-152.178-150.755 453.69-453.69zM320-64c42.667 0 83.437 8.060 122.313 24.179 38.874 16.115 73.481 39.347 103.821 69.687l152.179 150.754-453.69 453.69-150.755-152.178c-30.341-30.34-53.57-64.947-69.689-103.821s-24.178-79.646-24.178-122.313c0-89.126 31.061-164.732 93.184-226.816s137.728-93.146 226.816-93.184z" />
<glyph unicode="&#xe932;" glyph-name="launge" d="M460.464 744.812l-0.128-0.115c-0.090 1.566-0.179 3.225-0.275 4.987l-0.179 3.363c-0.768 14.098-1.952 35.431-10.621 52.286-4.707 9.155-12.010 17.887-23.114 23.407-10.973 5.458-23.526 6.715-36.922 4.87-11.875-1.636-22.41-6.419-30.726-14.474-8.15-7.896-12.992-17.788-15.654-27.886-5.171-19.598-2.976-43.015 2.368-65.559 10.8-45.572 37.069-98.143 66.605-133.9 11.363-13.76 14.851-34.49 14.851-43.421v-47.027l42.666-10.666v28.051c18.829 6.998 31.549 10.198 43.475 10.445 11.562 0.237 23.904-2.304 41.859-9.725v-28.771l42.666 10.666v47.027c0 8.931 3.488 29.661 14.854 43.421 29.338 35.52 56.915 87.852 69.107 133.289 6.019 22.428 9.034 45.834 4.515 65.503-2.333 10.159-6.893 20.236-14.979 28.317-8.256 8.253-18.842 13.071-30.736 14.709-13.392 1.844-25.946 0.587-36.922-4.87-11.101-5.521-18.403-14.253-23.114-23.407-8.666-16.855-9.85-38.188-10.618-52.286l-0.182-3.363c-0.093-1.762-0.182-3.421-0.272-4.987l-0.128 0.115c-10.186 9.073-23.664 12.163-32.749 13.494-6.957 1.020-13.715 1.304-18.79 1.383v0.030h-0.269c-0.71 0-1.51 0-2.39-0.004-0.88 0.004-1.683 0.004-2.394 0.004h-0.266v-0.030c-5.075-0.079-11.834-0.364-18.79-1.383-9.085-1.331-22.563-4.421-32.749-13.494zM488.848 712.956c0 0 0.189 0.156 0.614 0.39 0.307 0.171 0.704 0.365 1.203 0.574v-95.241h42.669v96.809c1.667-0.352 3.126-0.755 4.358-1.195 0.979-0.352 1.686-0.681 2.17-0.947 0.426-0.237 0.618-0.395 0.618-0.395 9.030-8.043 18.198-14.827 27.395-17.903 4.944-1.655 11.238-2.699 18.010-1.045 7.142 1.743 12.47 5.907 16.064 10.579 6.080 7.9 7.715 17.973 8.486 24.024 0.762 5.969 1.123 12.849 1.45 19.091l0.16 3.031c0.867 15.918 2.179 27.734 5.962 35.096 1.52 2.954 2.931 4.098 4.166 4.713 1.363 0.678 4.774 1.816 12.102 0.806 3.859-0.532 5.51-1.735 6.394-2.616 1.056-1.054 2.534-3.226 3.558-7.694 2.202-9.585 1.216-24.941-4.138-44.892-10.55-39.315-35.206-86.195-60.797-117.18-14.288-17.293-20.723-38.509-23.235-54.477-15.238 5.082-29.408 7.648-44.125 7.347-14.515-0.298-28.659-3.392-43.834-8.32-2.406 16.070-8.806 37.802-23.386 55.45-25.395 30.747-48.698 77.39-57.984 116.571-4.701 19.834-5.178 35.181-2.63 44.836 1.197 4.528 2.81 6.886 4.090 8.125 1.114 1.080 2.982 2.317 6.861 2.851 7.328 1.009 10.739-0.128 12.102-0.806 1.235-0.615 2.646-1.758 4.166-4.713 3.782-7.362 5.094-19.178 5.958-35.096l0.163-3.030c0.326-6.24 0.688-13.123 1.45-19.092 0.768-6.050 2.406-16.124 8.483-24.024 3.597-4.672 8.925-8.836 16.067-10.579 6.771-1.653 13.066-0.61 18.010 1.045 9.197 3.076 18.368 9.862 27.398 17.907zM554.656 206.621c-18.832-7.002-31.549-10.202-43.478-10.445-11.558-0.237-23.901 2.304-41.856 9.722v35.885l-42.666-46.224v-46.221c0-47.126 38.205-85.334 85.331-85.334s85.331 38.205 85.334 85.331v46.227l-42.666 46.221v-35.162zM511.987 106.672c-23.562 0-42.666 19.101-42.666 42.662v11.072c14.714-4.781 28.467-7.181 42.733-6.89 14.122 0.291 27.891 3.229 42.602 7.926v-12.106c0-23.565-19.104-42.666-42.669-42.666zM263.714 715.612c21.152-13.357 38.556-37.604 51.458-69.73 3.281-8.17 6.489-16.976 9.845-26.186 11.062-30.371 23.741-65.178 46.019-96.323 27.606-38.589 69.203-69.77 140.963-69.77s113.357 31.181 140.963 69.77c22.278 31.146 34.957 65.952 46.019 96.32 3.357 9.213 6.563 18.019 9.846 26.189 12.902 32.126 30.304 56.373 51.456 69.73 22.294 14.078 47.53 15.068 69.984 2.146 21.152-12.168 37.402-35.187 48.314-64.463 11.043-29.631 17.418-67.666 17.418-113.161v-217.328c0-18.112-3.501-60.061-23.83-98.304-21.114-39.718-60.544-75.158-128.784-75.158-34.032 0-59.437 9.616-80.054 24.56-18.448 13.363-32.55 30.758-44.787 45.856l-2.48 3.059c-13.43 16.518-25.341 30.477-40.899 40.755-14.928 9.862-34.278 16.966-63.165 16.966s-48.237-7.104-63.165-16.966c-15.558-10.278-27.469-24.237-40.899-40.755l-2.48-3.059c-12.237-15.098-26.339-32.493-44.787-45.856-20.618-14.944-46.023-24.56-80.054-24.56-68.241 0-107.67 35.44-128.784 75.158-20.33 38.243-23.83 80.192-23.83 98.304v217.328c0 45.494 6.374 83.53 17.418 113.161 10.912 29.276 27.163 52.294 48.312 64.463 22.456 12.922 47.691 11.932 69.984-2.146zM256 576.016c0-11.782-9.551-21.334-21.333-21.334s-21.333 9.552-21.333 21.334c0 11.782 9.551 21.331 21.333 21.331s21.333-9.549 21.333-21.331zM277.333 469.347c11.782 0 21.333 9.552 21.333 21.334s-9.551 21.334-21.333 21.334c-11.782 0-21.333-9.552-21.333-21.334s9.551-21.334 21.333-21.334zM256 405.347c0-11.782-9.551-21.331-21.333-21.331s-21.333 9.549-21.333 21.331c0 11.782 9.551 21.334 21.333 21.334s21.333-9.552 21.333-21.334zM341.334 277.347c11.782 0 21.331 9.552 21.331 21.334s-9.549 21.334-21.331 21.334c-11.782 0-21.334-9.552-21.334-21.334s9.552-21.334 21.334-21.334zM277.333 298.682c0-11.782-9.551-21.334-21.333-21.334s-21.333 9.552-21.333 21.334c0 11.782 9.551 21.334 21.333 21.334s21.333-9.552 21.333-21.334zM341.334 362.682c11.782 0 21.331 9.552 21.331 21.334s-9.549 21.331-21.331 21.331c-11.782 0-21.334-9.549-21.334-21.331s9.552-21.334 21.334-21.334zM448 362.682c0-11.782-9.552-21.334-21.334-21.334s-21.331 9.552-21.331 21.334c0 11.782 9.549 21.334 21.331 21.334s21.334-9.552 21.334-21.334zM789.334 554.682c-11.782 0-21.334 9.552-21.334 21.334s9.552 21.331 21.334 21.331c11.782 0 21.331-9.549 21.331-21.331s-9.549-21.334-21.331-21.334zM725.334 490.682c0-11.782 9.549-21.334 21.331-21.334s21.334 9.552 21.334 21.334c0 11.782-9.552 21.334-21.334 21.334s-21.331-9.552-21.331-21.334zM789.334 384.016c-11.782 0-21.334 9.549-21.334 21.331s9.552 21.334 21.334 21.334c11.782 0 21.331-9.552 21.331-21.334s-9.549-21.331-21.331-21.331zM661.334 298.682c0-11.782 9.549-21.334 21.331-21.334s21.334 9.552 21.334 21.334c0 11.782-9.552 21.334-21.334 21.334s-21.331-9.552-21.331-21.334zM768 277.347c-11.782 0-21.334 9.552-21.334 21.334s9.552 21.334 21.334 21.334c11.782 0 21.334-9.552 21.334-21.334s-9.552-21.334-21.334-21.334zM661.334 384.016c0-11.782 9.549-21.334 21.331-21.334s21.334 9.552 21.334 21.334c0 11.782-9.552 21.331-21.334 21.331s-21.331-9.549-21.331-21.331zM597.334 341.347c-11.782 0-21.334 9.552-21.334 21.334s9.552 21.334 21.334 21.334c11.782 0 21.331-9.552 21.331-21.334s-9.549-21.334-21.331-21.334zM533.334 362.682c0-11.782-9.552-21.334-21.334-21.334s-21.334 9.552-21.334 21.334c0 11.782 9.552 21.334 21.334 21.334s21.334-9.552 21.334-21.334z" />
<glyph unicode="&#xe933;" glyph-name="home-filled" d="M23.259 517.85c-7.336-6.84-13.186-15.118-17.188-24.317s-6.068-19.121-6.072-29.15v-418.669c0-29.099 11.559-57.006 32.134-77.582s48.482-32.133 77.58-32.133h329.142v219.43c0 19.398 7.707 38.001 21.422 51.719 13.718 13.715 32.321 21.422 51.722 21.422 19.398 0 38.001-7.707 51.719-21.422 13.718-13.718 21.422-32.321 21.422-51.719v-219.43h329.144c29.095 0 57.003 11.558 77.578 32.133s32.133 48.483 32.133 77.582v418.669c-0.003 10.028-2.068 19.951-6.069 29.15-4.004 9.199-9.854 17.476-17.19 24.317l-464.968 433.37c-6.625 5.666-15.056 8.78-23.77 8.78-8.718 0-17.149-3.114-23.774-8.78l-464.967-433.37z" />
<glyph unicode="&#xe934;" glyph-name="heart-with-beat" d="M81.92 597.245c0 156.341 104.085 301.315 246.612 301.315 98.906 0 172.298-65.044 217.6-157.316 45.302 92.266 118.694 157.316 217.604 157.316 142.541 0 246.612-144.998 246.612-301.315 0-334.626-464.216-572.497-464.216-572.497s-312.696 150.536-424.806 397.464h276.936l44.020 78.25 51.413-179.962 120.406 154.808h150.487v54.612h-177.197l-70.742-90.952-57.811 202.33-92.513-164.475h-265.84c5.788-18.686 12.8-36.897 20.842-54.612l-121.326 0.004v54.612l100.484-0.004c-11.835 38.206-18.564 78.407-18.564 120.421z" />
<glyph unicode="&#xe935;" d="M484.535 549.534c-8.224-2.234-16.047-5.449-23.334-9.513-1.882 1.568-3.386 3.644-4.282 6.118l-42.325 116.798c-2.697 7.445 1.124 15.674 8.535 18.383 1.613 0.591 3.262 0.866 4.879 0.866 5.835 0 11.311-3.616 13.421-9.436l42.325-116.8c0.768-2.125 1.007-4.314 0.781-6.417z" />
<glyph unicode="&#xe936;" d="M410.016 758.791c-2.699 7.444-10.893 11.282-18.304 8.573s-11.234-10.941-8.535-18.385l17.037-47.017c2.699-7.445 10.893-11.283 18.304-8.574s11.232 10.942 8.535 18.385l-17.037 47.017z" />
<glyph unicode="&#xe937;" d="M410.637 474.98c-2.11-8.015-3.298-16.403-3.445-25.047-2.302-0.858-4.849-1.131-7.439-0.672l-121.869 21.585c-7.763 1.376-12.949 8.813-11.582 16.614 1.222 6.955 7.247 11.853 14.048 11.853 0.821 0 1.655-0.070 2.494-0.22l121.869-21.583c2.217-0.393 4.222-1.28 5.924-2.53z" />
<glyph unicode="&#xe938;" d="M193.044 515.074c-7.767 1.376-15.174-3.834-16.544-11.635s3.817-15.243 11.584-16.617l49.059-8.689c7.765-1.376 15.172 3.834 16.542 11.635s-3.817 15.241-11.584 16.617l-49.057 8.689z" />
<glyph unicode="&#xe939;" d="M457.937 357.905c-0.412-2.421-1.451-4.766-3.136-6.786l-79.543-95.215c-5.067-6.067-14.074-6.861-20.115-1.766-3.364 2.835-5.101 6.901-5.101 10.991 0 3.255 1.094 6.524 3.341 9.212l79.543 95.215c1.455 1.741 3.23 3.046 5.169 3.904 5.95-5.948 12.612-11.174 19.842-15.554z" />
<glyph unicode="&#xe93a;" d="M294.633 204.198c-5.069-6.067-4.282-15.115 1.762-20.207 6.042-5.092 15.049-4.301 20.117 1.766l32.021 38.33c5.069 6.069 4.282 15.117-1.76 20.209s-15.051 4.301-20.119-1.769l-32.021-38.33z" />
<glyph unicode="&#xe93b;" d="M600.924 214.679c-1.611-0.591-3.26-0.866-4.879-0.866-5.833 0-11.309 3.616-13.419 9.438l-42.325 116.798c-0.768 2.125-1.007 4.314-0.783 6.419 8.224 2.231 16.049 5.446 23.337 9.51 1.879-1.568 3.383-3.642 4.282-6.118l42.325-116.798c2.697-7.443-1.126-15.674-8.538-18.383z" />
<glyph unicode="&#xe93c;" d="M613.734 137.188c2.699-7.445 10.893-11.283 18.304-8.574s11.234 10.942 8.535 18.385l-17.037 47.019c-2.699 7.443-10.893 11.281-18.304 8.572s-11.234-10.94-8.535-18.385l17.037-47.017z" />
<glyph unicode="&#xe93d;" d="M757.54 408.644c-1.22-6.957-7.247-11.853-14.044-11.853-0.823 0-1.655 0.070-2.496 0.22l-121.869 21.583c-2.217 0.39-4.222 1.278-5.924 2.53 2.11 8.013 3.298 16.401 3.445 25.047 2.302 0.855 4.849 1.129 7.439 0.67l121.865-21.583c7.767-1.376 12.954-8.813 11.584-16.614z" />
<glyph unicode="&#xe93e;" d="M830.955 381.114c7.767-1.376 15.174 3.834 16.544 11.635s-3.817 15.241-11.584 16.617l-49.058 8.689c-7.765 1.376-15.172-3.834-16.542-11.635s3.817-15.241 11.584-16.617l49.056-8.689z" />
<glyph unicode="&#xe93f;" d="M673.666 630.88c0-3.255-1.094-6.524-3.341-9.212l-79.543-95.215c-1.455-1.741-3.23-3.046-5.169-3.902-5.95 5.946-12.612 11.174-19.842 15.552 0.414 2.421 1.451 4.766 3.136 6.786l79.543 95.215c5.069 6.069 14.074 6.861 20.115 1.769 3.364-2.837 5.101-6.901 5.101-10.993z" />
<glyph unicode="&#xe940;" d="M728.93 691.885c5.069 6.067 4.282 15.115-1.762 20.207-6.042 5.092-15.049 4.301-20.117-1.766l-32.021-38.33c-5.069-6.069-4.282-15.117 1.76-20.209s15.051-4.301 20.119 1.769l32.021 38.33z" />
<glyph unicode="&#xe941;" d="M451.633 533.988c-6.884-4.879-13.158-10.577-18.677-16.945-2.306 0.83-4.435 2.263-6.125 4.288l-23.029 27.563c-5.073 6.069-4.284 15.117 1.76 20.211 2.675 2.253 5.931 3.354 9.171 3.354 4.075 0 8.122-1.741 10.946-5.122l23.029-27.567c1.451-1.737 2.421-3.721 2.925-5.781z" />
<glyph unicode="&#xe942;" d="M310.47 705.139c-5.069 6.067-14.076 6.859-20.115 1.766-6.042-5.090-6.829-14.138-1.76-20.205l89.148-106.711c5.069-6.067 14.076-6.859 20.115-1.769 6.042 5.092 6.829 14.138 1.76 20.205l-89.148 106.714z" />
<glyph unicode="&#xe943;" d="M412.907 413.839c-1.865-1.585-4.158-2.707-6.737-3.166l-35.281-6.249c-7.77-1.376-15.174 3.831-16.546 11.635-0.147 0.843-0.218 1.683-0.218 2.509 0 6.833 4.873 12.881 11.802 14.108l35.283 6.249c2.223 0.395 4.42 0.25 6.451-0.348 0.759-8.585 2.549-16.875 5.246-24.738z" />
<glyph unicode="&#xe944;" d="M326.165 425.638l-136.583-24.19c-7.766-1.376-12.952-8.813-11.582-16.614 1.369-7.799 8.775-13.009 16.541-11.633l136.582 24.19c7.767 1.376 12.951 8.813 11.584 16.614-1.37 7.799-8.777 13.009-16.542 11.633z" />
<glyph unicode="&#xe945;" d="M491.561 337.308l-12.252-33.815c-2.697-7.445-10.891-11.285-18.304-8.576-5.801 2.123-9.402 7.625-9.402 13.481 0 1.63 0.279 3.285 0.868 4.905l12.252 33.815c0.768 2.125 1.984 3.957 3.505 5.425 7.548-3.516 15.582-6.153 23.972-7.782 0.433-2.415 0.258-4.979-0.64-7.452z" />
<glyph unicode="&#xe946;" d="M438.507 275.213l-47.435-130.903c-2.699-7.443 1.122-15.671 8.533-18.381 7.409-2.709 15.603 1.129 18.302 8.572l47.433 130.901c2.699 7.443-1.122 15.674-8.533 18.381-7.409 2.709-15.603-1.129-18.3-8.57z" />
<glyph unicode="&#xe947;" d="M618.323 326.895c-2.677-2.253-5.931-3.351-9.173-3.351-4.073 0-8.119 1.741-10.944 5.12l-23.031 27.567c-1.451 1.739-2.421 3.723-2.925 5.783 6.886 4.877 13.158 10.575 18.677 16.945 2.308-0.83 4.437-2.263 6.127-4.288l23.029-27.565c5.071-6.069 4.282-15.117-1.76-20.211z" />
<glyph unicode="&#xe948;" d="M646.116 315.972c-5.069 6.067-14.076 6.859-20.115 1.766-6.042-5.090-6.829-14.138-1.76-20.205l89.148-106.711c5.069-6.067 14.076-6.859 20.115-1.769 6.042 5.092 6.829 14.138 1.76 20.207l-89.148 106.711z" />
<glyph unicode="&#xe949;" d="M669.886 477.572c0-6.831-4.873-12.881-11.802-14.108l-35.281-6.249c-2.225-0.395-4.42-0.25-6.453 0.348-0.759 8.587-2.549 16.875-5.246 24.738 1.865 1.585 4.158 2.709 6.737 3.168l35.283 6.246c7.767 1.376 15.174-3.831 16.544-11.635 0.147-0.843 0.218-1.683 0.218-2.509z" />
<glyph unicode="&#xe94a;" d="M829.602 522.929l-136.582-24.188c-7.765-1.376-12.951-8.815-11.582-16.614 1.37-7.802 8.774-13.009 16.542-11.635l136.582 24.19c7.765 1.376 12.951 8.815 11.582 16.614-1.37 7.802-8.774 13.009-16.542 11.633z" />
<glyph unicode="&#xe94b;" d="M572.866 587.631c0-1.63-0.279-3.285-0.868-4.905l-12.252-33.815c-0.768-2.127-1.984-3.957-3.505-5.425-7.548 3.516-15.582 6.153-23.972 7.782-0.435 2.415-0.258 4.979 0.64 7.452l12.252 33.815c2.697 7.445 10.891 11.283 18.304 8.576 5.801-2.123 9.402-7.622 9.402-13.481z" />
<glyph unicode="&#xe94c;" d="M606.276 761.566l-47.435-130.901c-2.697-7.443 1.124-15.674 8.533-18.383 7.411-2.709 15.605 1.129 18.302 8.572l47.435 130.902c2.697 7.443-1.124 15.673-8.533 18.382-7.411 2.709-15.605-1.129-18.302-8.572z" />
<glyph unicode="&#xe94d;" d="M522.308 654.929v-95.806c0-2.27-0.525-4.414-1.459-6.321-2.903 0.247-5.845 0.371-8.815 0.371-5.559 0-11.017-0.435-16.343-1.274-1.233 2.121-1.941 4.591-1.941 7.223v95.806c0 7.919 6.394 14.342 14.278 14.342 3.947 0 7.514-1.606 10.099-4.203 2.581-2.594 4.181-6.18 4.181-10.14z" />
<glyph unicode="&#xe94e;" d="M522.306 774.992c0 7.92-6.394 14.341-14.278 14.341s-14.278-6.421-14.278-14.341v-78.74c0-7.921 6.394-14.34 14.278-14.34s14.278 6.419 14.278 14.34v78.74z" />
<glyph unicode="&#xe94f;" d="M425.756 508.169c-4.783-6.891-8.766-14.381-11.81-22.338-2.443-0.011-4.919 0.608-7.187 1.922l-82.598 47.9c-6.827 3.959-9.167 12.734-5.225 19.59 3.942 6.859 12.676 9.21 19.503 5.25l82.598-47.9c1.954-1.133 3.539-2.66 4.719-4.425z" />
<glyph unicode="&#xe950;" d="M234.852 620.565c-6.831 3.959-15.563 1.609-19.505-5.25s-1.602-15.629 5.227-19.59l67.891-39.371c6.829-3.959 15.561-1.609 19.503 5.25 3.945 6.859 1.604 15.631-5.225 19.59l-67.891 39.371z" />
<glyph unicode="&#xe951;" d="M430.347 381.837c-1.212-2.142-2.989-3.994-5.265-5.316l-82.598-47.898c-6.831-3.962-15.561-1.611-19.503 5.248-1.299 2.261-1.918 4.725-1.918 7.162 0 4.954 2.562 9.775 7.142 12.429l82.598 47.9c1.952 1.133 4.055 1.747 6.159 1.888 3.603-7.693 8.109-14.876 13.385-21.412z" />
<glyph unicode="&#xe952;" d="M292.506 332.896l-67.891-39.371c-6.829-3.962-9.169-12.732-5.225-19.59 3.942-6.859 12.674-9.21 19.503-5.25l67.891 39.371c6.829 3.959 9.169 12.732 5.227 19.59s-12.674 9.21-19.505 5.25z" />
<glyph unicode="&#xe953;" d="M530.223 336.922v-95.806c0-7.919-6.394-14.342-14.278-14.342-3.945 0-7.511 1.606-10.097 4.203-2.581 2.594-4.181 6.18-4.181 10.14v95.806c0 2.27 0.525 4.414 1.457 6.321 2.906-0.247 5.847-0.371 8.815-0.371 5.562 0 11.019 0.435 16.346 1.274 1.231-2.121 1.939-4.589 1.939-7.223z" />
<glyph unicode="&#xe954;" d="M530.223 199.742c0 7.921-6.394 14.342-14.278 14.342s-14.278-6.421-14.278-14.342v-78.741c0-7.919 6.394-14.34 14.278-14.34s14.278 6.421 14.278 14.34v78.741z" />
<glyph unicode="&#xe955;" d="M704.591 340.922c-2.647-4.602-7.445-7.174-12.382-7.174-2.421 0-4.875 0.621-7.121 1.922l-82.603 47.902c-1.954 1.133-3.543 2.66-4.715 4.425 4.781 6.891 8.764 14.381 11.81 22.338 2.441 0.009 4.915-0.608 7.183-1.922l82.601-47.902c6.827-3.959 9.167-12.732 5.227-19.588z" />
<glyph unicode="&#xe956;" d="M735.185 339.857c-6.829 3.959-15.563 1.609-19.505-5.25s-1.602-15.629 5.227-19.59l67.891-39.371c6.829-3.959 15.561-1.609 19.505 5.25 3.942 6.859 1.602 15.629-5.227 19.59l-67.891 39.371z" />
<glyph unicode="&#xe957;" d="M702.993 555.021c0-4.956-2.562-9.775-7.142-12.429l-82.598-47.9c-1.952-1.135-4.058-1.747-6.159-1.89-3.603 7.693-8.109 14.878-13.385 21.414 1.212 2.142 2.989 3.994 5.265 5.316l82.598 47.895c6.829 3.964 15.561 1.613 19.503-5.248 1.299-2.259 1.918-4.725 1.918-7.159z" />
</font>
</defs>
</svg>
